<?xml version="1.0" standalone="no"?>
<!DOCTYPE svg PUBLIC "-//W3C//DTD SVG 1.1//EN" "http://www.w3.org/Graphics/SVG/1.1/DTD/svg11.dtd" >
<svg xmlns="http://www.w3.org/2000/svg">
<metadata>Generated by IcoMoon</metadata>
<defs>
<font id="xposure" horiz-adv-x="1024">
<font-face units-per-em="1024" ascent="960" descent="-64" />
<missing-glyph horiz-adv-x="1024" />
<glyph unicode="&#x20;" horiz-adv-x="512" d="" />
<glyph unicode="&#xe900;" glyph-name="xposure" d="M737.617 548.485h-300.838c-2.046 0.004-4.053 0.558-5.81 1.606s-3.2 2.549-4.177 4.346c-0.976 1.798-1.451 3.825-1.373 5.869s0.705 4.030 1.815 5.748l30.8 48.044c1.049 1.609 2.479 2.936 4.162 3.863s3.568 1.425 5.49 1.451h300.842c2.042-0.004 4.048-0.558 5.807-1.605s3.198-2.549 4.18-4.346c0.976-1.798 1.446-3.826 1.373-5.869-0.078-2.044-0.711-4.030-1.819-5.748l-30.907-48.151c-0.994-1.631-2.397-2.971-4.072-3.885s-3.566-1.37-5.475-1.321zM828.561 690.249h-300.84c-2.046 0.004-4.053 0.558-5.811 1.605s-3.199 2.549-4.176 4.347c-0.976 1.797-1.45 3.825-1.373 5.869s0.705 4.030 1.816 5.748l30.8 48.151c1.055 1.596 2.488 2.907 4.172 3.815s3.566 1.386 5.48 1.391h300.839c2.108 0.192 4.222-0.236 6.090-1.231s3.397-2.513 4.415-4.368c1.012-1.855 1.464-3.966 1.289-6.074-0.169-2.107-0.952-4.119-2.247-5.788l-30.913-48.151c-0.976-1.651-2.373-3.013-4.054-3.947-1.675-0.934-3.566-1.405-5.487-1.367v0zM555.656 264.782h-300.407c-2.046 0-4.053 0.554-5.81 1.602s-3.2 2.548-4.177 4.349c-0.976 1.795-1.449 3.825-1.371 5.867s0.704 4.030 1.815 5.746l30.8 48.152c1.055 1.596 2.488 2.909 4.172 3.819 1.684 0.904 3.566 1.385 5.48 1.385h300.841c2.046 0 4.052-0.554 5.81-1.602s3.2-2.548 4.177-4.349c0.976-1.795 1.45-3.825 1.373-5.867s-0.706-4.030-1.816-5.746l-30.909-48.044c-1.013-1.717-2.481-3.126-4.241-4.060-1.761-0.94-3.745-1.373-5.736-1.253zM464.67 123.073h-300.841c-2.105-0.193-4.22 0.235-6.086 1.229-1.865 1-3.401 2.518-4.415 4.373s-1.463 3.963-1.293 6.072c0.17 2.108 0.952 4.12 2.25 5.789l30.801 48.152c1.050 1.608 2.479 2.933 4.162 3.861s3.569 1.428 5.49 1.452h300.731c2.055 0.018 4.076-0.524 5.848-1.566 1.773-1.036 3.232-2.536 4.221-4.337s1.473-3.837 1.399-5.891c-0.073-2.054-0.702-4.048-1.817-5.777l-30.908-48.152c-0.992-1.626-2.396-2.97-4.072-3.885-1.676-0.91-3.564-1.367-5.472-1.319zM795.281 129.175l-142.505 277.416h-320.901c-2.099-0.057-4.17 0.497-5.96 1.594s-3.223 2.691-4.126 4.587l-169.941 331.749c-0.895 1.741-1.326 3.683-1.251 5.639s0.651 3.86 1.676 5.528c1.025 1.668 2.463 3.044 4.174 3.994s3.638 1.444 5.596 1.432h56.285c2.099 0.057 4.169-0.498 5.96-1.595s3.224-2.691 4.127-4.587c21.039-40.994 140.116-272.752 142.394-277.415h320.579c2.096 0.057 4.168-0.497 5.957-1.594 1.795-1.097 3.229-2.691 4.126-4.587l24.184-47.284 146.083-284.462c1.078-1.711 1.656-3.68 1.675-5.698s-0.53-4-1.578-5.722c-1.048-1.723-2.554-3.12-4.355-4.036-1.795-0.916-3.813-1.307-5.825-1.138h-56.284c-2.102-0.060-4.174 0.494-5.963 1.596-1.789 1.096-3.223 2.686-4.126 4.584z" />
<glyph unicode="&#xe901;" glyph-name="add-to-saved-2" d="M864 725.333h-704c-8.487 0-16.626 3.372-22.627 9.373s-9.373 14.141-9.373 22.627c0 8.487 3.372 16.626 9.373 22.627s14.141 9.373 22.627 9.373h704c8.486 0 16.627-3.372 22.626-9.373 6.003-6.001 9.374-14.141 9.374-22.627s-3.371-16.626-9.374-22.627c-5.999-6.001-14.14-9.373-22.626-9.373zM325.614 426.667h-160.561c-9.827 0-19.251 3.371-26.2 9.374-6.949 5.999-10.852 14.14-10.852 22.626s3.904 16.627 10.852 22.626c6.949 6.003 16.373 9.374 26.2 9.374h160.561c9.827 0 19.252-3.371 26.2-9.374 6.949-5.999 10.852-14.14 10.852-22.626s-3.904-16.627-10.852-22.626c-6.949-6.003-16.373-9.374-26.2-9.374zM329.143 192h-167.619c-8.891 0-17.418-3.371-23.705-9.374-6.287-5.999-9.819-14.14-9.819-22.626s3.532-16.627 9.819-22.626c6.287-6.003 14.814-9.374 23.705-9.374h167.619c8.891 0 17.418 3.371 23.705 9.374 6.287 5.999 9.819 14.14 9.819 22.626s-3.532 16.627-9.819 22.626c-6.287 6.003-14.814 9.374-23.705 9.374zM642.167 558.932c-64.802 0-117.333-52.53-117.333-117.332v-320c0-12.164 6.895-23.279 17.796-28.676s23.919-4.151 33.596 3.221l161.941 113.225 161.937-113.225c9.677-7.373 22.699-8.619 33.596-3.221 10.901 5.397 17.801 16.512 17.801 28.676v320c0 64.802-52.531 117.332-117.333 117.332h-192zM588.834 441.6c0 29.453 23.876 53.333 53.333 53.333h192c29.453 0 53.333-23.881 53.333-53.333v-255.39l-129.941 88.841c-11.456 8.73-27.332 8.73-38.788 0l-129.937-88.841v255.39z" />
<glyph unicode="&#xe902;" glyph-name="add-to-saved" d="M160 426.667h138.667c8.487 0 16.626 3.371 22.627 9.374 6.001 5.999 9.373 14.14 9.373 22.626s-3.372 16.627-9.373 22.626c-6.001 6.003-14.141 9.374-22.627 9.374h-138.667c-8.487 0-16.626-3.371-22.627-9.374-6.001-5.999-9.373-14.14-9.373-22.626s3.372-16.627 9.373-22.626c6.001-6.003 14.141-9.374 22.627-9.374zM160 725.333h704c8.486 0 16.627 3.372 22.626 9.373 6.003 6.001 9.374 14.141 9.374 22.627s-3.371 16.626-9.374 22.627c-5.999 6.001-14.14 9.373-22.626 9.373h-704c-8.487 0-16.626-3.372-22.627-9.373s-9.373-14.141-9.373-22.627c0-8.487 3.372-16.626 9.373-22.627s14.141-9.373 22.627-9.373zM320 192h-160c-8.487 0-16.626-3.371-22.627-9.374-6.001-5.999-9.373-14.14-9.373-22.626s3.372-16.627 9.373-22.626c6.001-6.003 14.141-9.374 22.627-9.374h160c8.487 0 16.626 3.371 22.627 9.374 6.001 5.999 9.373 14.14 9.373 22.626s-3.372 16.627-9.373 22.626c-6.001 6.003-14.141 9.374-22.627 9.374zM935.799 376.29c-1.506 42.112-19.281 82.001-49.583 111.287-30.302 29.282-70.775 45.683-112.917 45.747-29.649-0.981-58.014-12.326-80.158-32.060-21.12 19.75-48.704 31.147-77.606 32.060-42.436 0.396-83.324-15.94-113.805-45.466-30.481-29.53-48.107-69.871-49.062-112.299v-4.736c0.102-42.492 16.998-83.226 47.002-113.314 1.020-1.946 2.244-3.776 3.644-5.466l17.122-16.034c18.586-16.759 55.381-48.823 127.526-111.855 11.921-11.251 27.695-17.506 44.087-17.489 15.569 0.171 30.758 4.855 43.721 13.483 11.661 9.835 150.844 134.81 150.844 134.81 35.729 35.729 49.037 71.979 49.186 114.931v6.4zM867.665 370.825c-0.055-12.749-2.624-25.365-7.565-37.116-4.941-11.755-12.151-22.421-21.218-31.386l-145.741-128.252-150.481 127.889c-17.557 17.685-27.721 41.399-28.416 66.313v6.195c1.22 25.229 12.13 49.011 30.46 66.389s42.658 27.008 67.913 26.884c8.23-0.602 16.213-3.093 23.322-7.287 8.329-4.471 15.262-11.153 20.041-19.311 3.362-6.758 8.563-12.433 15.010-16.367 6.447-3.93 13.875-5.961 21.423-5.858 7.526 0.021 14.899 2.103 21.325 6.025 6.421 3.917 11.648 9.523 15.113 16.201 4.557 8.329 11.55 15.066 20.036 19.311 7.232 3.797 15.172 6.029 23.322 6.558 24.759 0.017 48.555-9.591 66.368-26.79 17.809-17.199 28.241-40.644 29.090-65.391v-4.006z" />
<glyph unicode="&#xe903;" glyph-name="archive" d="M64 704c0 35.346 28.654 64 64 64h768c35.345 0 64-28.654 64-64v-96c0-35.346-28.655-64-64-64h-768c-35.346 0-64 28.654-64 64v96zM896 704h-768v-96h768v96zM160 608c17.673 0 32-14.327 32-32v-384h640v384c0 17.673 14.327 32 32 32s32-14.327 32-32v-384c0-16.973-6.741-33.254-18.743-45.257s-28.284-18.743-45.257-18.743h-640c-16.974 0-33.252 6.741-45.255 18.743s-18.745 28.284-18.745 45.257v384c0 17.673 14.327 32 32 32zM384 416c0 17.673 14.327 32 32 32h192c17.673 0 32-14.327 32-32s-14.327-32-32-32h-192c-17.673 0-32 14.327-32 32z" />
<glyph unicode="&#xe904;" glyph-name="arrow-down" d="M512.013 831.979c17.673 0 32-14.327 32-32v-624.081l168.781 176.858c12.203 12.787 32.457 13.261 45.244 1.058s13.261-32.457 1.058-45.244l-223.932-234.65c-6.037-6.327-14.404-9.907-23.151-9.907s-17.109 3.584-23.147 9.907l-223.933 234.65c-12.201 12.787-11.728 33.041 1.057 45.244s33.041 11.729 45.242-1.058l168.78-176.858v624.081c0 17.673 14.327 32 32 32z" />
<glyph unicode="&#xe905;" glyph-name="arrow-left" d="M417.798 694.092c12.201-12.785 11.727-33.041-1.057-45.242l-176.859-168.782h624.084c17.673 0 32-14.327 32-32s-14.327-32-32-32h-624.084l176.859-168.781c12.784-12.198 13.258-32.457 1.057-45.239-12.201-12.787-32.457-13.261-45.242-1.058l-234.648 223.927c-6.327 6.042-9.908 14.404-9.908 23.151s3.58 17.114 9.908 23.151l234.648 223.931c12.785 12.201 33.041 11.728 45.242-1.058z" />
<glyph unicode="&#xe906;" glyph-name="arrow-right" d="M606.165 694.019c12.203 12.785 32.457 13.259 45.244 1.058l234.65-223.93c6.327-6.037 9.907-14.404 9.907-23.151s-3.58-17.109-9.907-23.151l-234.65-223.927c-12.787-12.203-33.041-11.729-45.244 1.054-12.198 12.787-11.729 33.041 1.058 45.244l176.858 168.781h-624.081c-17.673 0-32 14.327-32 32s14.327 32 32 32h624.081l-176.858 168.781c-12.787 12.201-13.261 32.457-1.058 45.242z" />
<glyph unicode="&#xe907;" glyph-name="arrow-sort" d="M298.75 789.323c8.756 0 17.129-3.588 23.169-9.928l181.335-190.338c12.19-12.796 11.699-33.051-1.097-45.242-12.796-12.189-33.054-11.698-45.244 1.096l-126.163 132.43v-538.666c0-17.677-14.327-32-32-32s-32 14.323-32 32v538.666l-126.164-132.43c-12.19-12.794-32.445-13.285-45.241-1.096s-13.287 32.445-1.097 45.242l181.333 190.338c6.040 6.34 14.413 9.928 23.169 9.928zM725.363 789.323c17.673 0 32-14.327 32-32v-538.669l126.165 132.429c12.19 12.796 32.444 13.286 45.239 1.097s13.286-32.444 1.097-45.239l-181.333-190.34c-6.037-6.34-14.413-9.924-23.168-9.924s-17.131 3.584-23.168 9.924l-181.333 190.34c-12.19 12.796-11.699 33.050 1.097 45.239s33.050 11.699 45.239-1.097l126.165-132.429v538.669c0 17.673 14.327 32 32 32z" />
<glyph unicode="&#xe908;" glyph-name="arrow-up" d="M512.013 831.979c8.747 0 17.114-3.58 23.151-9.907l223.932-234.649c12.203-12.785 11.729-33.041-1.058-45.242s-33.041-11.727-45.244 1.057l-168.781 176.859v-624.084c0-17.673-14.327-32-32-32s-32 14.327-32 32v624.084l-168.78-176.859c-12.201-12.785-32.457-13.259-45.242-1.058s-13.259 32.457-1.057 45.242l223.933 234.649c6.037 6.327 14.4 9.907 23.147 9.907z" />
<glyph unicode="&#xe909;" glyph-name="attention" d="M867.554 448c0 196.368-159.185 355.555-355.554 355.555s-355.555-159.188-355.555-355.555c0-196.369 159.188-355.554 355.555-355.554 196.369 0 355.554 159.185 355.554 355.554zM938.667 448c0-235.639-191.027-426.667-426.667-426.667-235.642 0-426.667 191.027-426.667 426.667 0 235.642 191.025 426.667 426.667 426.667 235.639 0 426.667-191.025 426.667-426.667zM554.667 661.333h-88.585l11.379-287.168h65.015l12.19 287.168zM481.523 247.377c8.67-8.474 18.965-12.71 30.882-12.71 11.921 0 21.943 4.237 30.071 12.71 8.128 9.037 12.19 19.486 12.19 31.347 0 12.429-4.062 22.596-12.19 30.502-8.128 8.474-18.15 12.71-30.071 12.71-12.459 0-22.754-4.237-30.882-12.71-8.128-7.906-12.19-18.074-12.19-30.502 0-11.861 4.062-22.31 12.19-31.347z" />
<glyph unicode="&#xe90a;" glyph-name="audio" d="M869.641 600.514c57.51-83.53 62.362-204.418-0.836-306.323-9.314-15.019-4.689-34.743 10.33-44.058s34.748-4.689 44.062 10.33c75.789 122.21 71.932 270.652-0.841 376.345-10.022 14.557-29.948 18.232-44.501 8.21-14.558-10.022-18.231-29.947-8.213-44.504zM608 775.465c0 19.014-23.654 27.764-36.028 13.328l-127.919-149.234c-28.774-33.572-70.783-52.893-115-52.893h-137.053c-41.237 0-74.667-33.429-74.667-74.666v-128c0-41.237 33.429-74.667 74.667-74.667h137.053c44.217 0 86.226-19.324 115-52.894l127.919-149.235c12.373-14.434 36.028-5.687 36.028 13.329v654.932zM523.379 830.444c51.042 59.55 148.621 23.453 148.621-54.979v-654.932c0-78.434-97.579-114.53-148.621-54.98l-127.916 149.235c-16.617 19.388-40.876 30.545-66.41 30.545h-137.053c-76.584 0-138.667 62.084-138.667 138.667v128c0 76.582 62.083 138.666 138.667 138.666h137.053c25.534 0 49.792 11.157 66.41 30.544l127.916 149.234zM213.333 629.333c17.673 0 32-14.327 32-32v-298.667c0-17.673-14.327-32-32-32s-32 14.327-32 32v298.667c0 17.673 14.327 32 32 32zM743.556 555.334c47.228-55.86 47.177-141.023-2.453-217.998-9.579-14.852-5.303-34.658 9.553-44.237 14.852-9.574 34.658-5.299 44.233 9.553 60.352 93.598 67.827 210.867-2.458 294.001-11.409 13.496-31.599 15.188-45.094 3.777s-15.189-31.601-3.78-45.097z" />
<glyph unicode="&#xe90b;" glyph-name="bookmark" d="M516.267 72.533c-21.333 0-46.933 8.533-64 25.6-277.333 243.2-281.6 247.467-281.6 251.733l-4.267 4.267c-51.2 51.2-81.067 123.733-81.067 196.267v8.533c4.267 153.6 128 273.067 281.6 273.067 46.933 0 110.933-25.6 149.333-76.8 38.4 51.2 106.667 76.8 153.6 76.8 153.6 0 273.067-119.467 281.6-273.067v-8.533c0-76.8-29.867-145.067-81.067-200.533l-4.267-4.267c-4.267-4.267-38.4-34.133-281.6-251.733-21.333-12.8-42.667-21.333-68.267-21.333zM234.667 362.667c17.067-17.067 102.4-76.8 260.267-213.333 12.8-12.8 29.867-12.8 42.667 0 162.133 145.067 256 226.133 277.333 243.2l4.267 4.267c42.667 42.667 64 98.133 64 153.6v8.533c-4.267 119.467-98.133 209.067-217.6 209.067-29.867 0-89.6-21.333-110.933-68.267-8.533-17.067-25.6-25.6-42.667-25.6s-34.133 8.533-42.667 25.6c-21.333 42.667-76.8 68.267-110.933 68.267-115.2 0-213.333-93.867-217.6-209.067v-12.8c0-55.467 25.6-110.933 64-149.333l29.867-34.133z" />
<glyph unicode="&#xe90c;" glyph-name="bookmark2-filled" d="M213.333 714.667c0 64.801 52.532 117.333 117.333 117.333h362.667c64.802 0 117.333-52.532 117.333-117.333v-618.667c0-12.164-6.895-23.279-17.796-28.676s-23.923-4.151-33.596 3.221l-247.275 198.558-247.273-198.558c-9.676-7.373-22.695-8.619-33.596-3.221s-17.798 16.512-17.798 28.676v618.667z" />
<glyph unicode="&#xe90d;" glyph-name="bookmark2" d="M213.333 714.667c0 64.801 52.532 117.333 117.333 117.333h362.667c64.802 0 117.333-52.532 117.333-117.333v-618.667c0-12.164-6.895-23.279-17.796-28.676s-23.923-4.151-33.596 3.221l-247.275 198.558-247.273-198.558c-9.676-7.373-22.695-8.619-33.596-3.221s-17.798 16.512-17.798 28.676v618.667zM330.667 768c-29.455 0-53.333-23.878-53.333-53.333v-554.057l215.275 174.178c11.456 8.725 27.328 8.725 38.784 0l215.275-174.178v554.057c0 29.455-23.876 53.333-53.333 53.333h-362.667z" />
<glyph unicode="&#xe90e;" glyph-name="cactus" d="M128 96c0 17.673 14.327 32 32 32h704c17.673 0 32-14.327 32-32s-14.327-32-32-32h-704c-17.673 0-32 14.327-32 32zM512 832c-25.459 0-49.877-10.114-67.883-28.118-18.003-18.004-28.117-42.421-28.117-67.882v-144c0-17.673-14.327-32-32-32h-48.159c-29.617 0.147-57.978 11.978-78.921 32.92s-32.773 49.304-32.92 78.921c-0.063 12.753-5.158 24.966-14.176 33.984-8.98 8.98-21.129 14.070-33.825 14.174-12.695-0.105-24.844-5.194-33.825-14.174-9.001-9.001-14.093-21.184-14.175-33.911 0.023-55.134 21.935-108.004 60.922-146.99 39.008-39.010 91.913-60.924 147.078-60.924h48c17.673 0 32-14.327 32-32v-336c0-17.673-14.327-32-32-32s-32 14.327-32 32v304h-16c-72.139 0-141.323 28.655-192.333 79.667-51.010 51.008-79.667 120.194-79.667 192.333h32l-32 0.159c0.147 29.617 11.977 57.978 32.92 78.921s49.304 32.773 78.921 32.92l0.317 0.002c29.617-0.147 57.978-11.979 78.921-32.922s32.773-49.304 32.92-78.921c0.063-12.753 5.158-24.966 14.176-33.984 9.001-9.001 21.186-14.094 33.914-14.175h15.911v112c0 42.435 16.857 83.131 46.863 113.137s70.701 46.863 113.137 46.863c42.436 0 83.132-16.857 113.139-46.863 30.003-30.006 46.861-70.703 46.861-113.137v-272h15.91c12.727 0.081 24.913 5.175 33.916 14.174 9.015 9.020 14.11 21.231 14.174 33.984 0.149 29.617 11.977 57.979 32.922 78.922 20.941 20.943 49.301 32.773 78.921 32.92l0.316 0.002c29.619-0.147 57.98-11.979 78.921-32.922 20.945-20.943 32.772-49.304 32.922-78.922l-32-0.158h32c0-72.141-28.655-141.325-79.667-192.333-51.008-51.012-120.192-79.667-192.333-79.667h-16v-144c0-17.673-14.327-32-32-32s-32 14.327-32 32v176c0 17.673 14.327 32 32 32h48c55.164 0 108.070 21.914 147.076 60.924 38.989 38.985 60.898 91.853 60.924 146.987-0.081 12.727-5.171 24.913-14.174 33.914-8.981 8.98-21.129 14.070-33.826 14.174-12.698-0.105-24.845-5.194-33.826-14.174-9.015-9.018-14.11-21.23-14.174-33.983-0.149-29.619-11.977-57.98-32.922-78.921-20.941-20.945-49.301-32.772-78.921-32.922h-48.158c-17.673 0-32 14.327-32 32v304c0 25.461-10.116 49.879-28.117 67.882-18.005 18.004-42.423 28.118-67.883 28.118z" />
<glyph unicode="&#xe90f;" glyph-name="calendar" d="M309.334 832c17.673 0 32-14.327 32-32v-21.333h341.333v21.333c0 17.673 14.327 32 32 32s32-14.327 32-32v-21.333h32c64.802 0 117.333-52.532 117.333-117.333v-480c0-64.802-52.531-117.333-117.333-117.333h-533.333c-64.801 0-117.333 52.531-117.333 117.333v480c0 64.801 52.532 117.333 117.333 117.333h32v21.333c0 17.673 14.327 32 32 32zM277.333 714.667h-32c-29.455 0-53.333-23.878-53.333-53.333v-74.671h640v74.671c0 29.455-23.876 53.333-53.333 53.333h-32v-21.333c0-17.673-14.327-32-32-32s-32 14.327-32 32v21.333h-341.333v-21.333c0-17.673-14.327-32-32-32s-32 14.327-32 32v21.333zM832 522.662h-640v-341.329c0-29.457 23.878-53.333 53.333-53.333h533.333c29.457 0 53.333 23.876 53.333 53.333v341.329z" />
<glyph unicode="&#xe910;" glyph-name="call2-failed" d="M936.179 663.84c13.329 13.33 13.329 34.942 0 48.272l-67.221 67.22 67.221 67.22c13.329 13.33 13.329 34.942 0 48.272-13.333 13.33-34.944 13.33-48.273 0l-67.221-67.22-67.243 67.242c-13.329 13.33-34.94 13.33-48.273 0-13.329-13.33-13.329-34.942 0-48.272l67.243-67.242-67.243-67.242c-13.329-13.33-13.329-34.942 0-48.272 13.333-13.33 34.944-13.33 48.273 0l67.243 67.242 67.221-67.22c13.329-13.33 34.94-13.33 48.273 0zM408.593 746.897c-43.755 35.355-108.748 43.498-157.855 6.976-50.903-37.859-86.426-79.413-105.639-130.673-11.594-30.935-6.269-63.145 6.080-88.858 56.752-118.171 125.452-210.685 213.839-282.493 88.32-71.753 194.692-121.523 324.945-156.501 33.83-9.084 72.183-4.992 102.967 17.169 37.525 27.017 69.116 59.981 97.071 101.419 38.609 57.229 18.091 129.361-30.537 168.649l-26.722 21.594c-57.967 46.839-142.703 39.573-191.855-16.448l-2.782-3.17c-22.63-25.792-58.825-32.525-86.528-16.99-51.567 28.915-84.804 54.221-108.809 81.596-14.635 16.695-14.054 46.332 7.65 71.070l3.998 4.557c51.883 59.127 44.156 149.4-17.028 198.839l-28.796 23.267zM288.932 702.519c21.844 16.247 54.468 14.775 79.438-5.402l28.795-23.267c24.416-19.728 32.996-51.518 24.389-79.599l-133.335 107.737 0.713 0.531zM240.247 658.558l146.289-118.204c-22.988-39.942-27.313-92.977 8.113-133.382 30.624-34.927 70.703-64.431 125.628-95.228 45.577-25.553 99.375-20.177 139.878 7.518l141.423-114.27c-14.272-15.287-29.513-28.634-46.042-40.538-12.894-9.28-30.81-12.177-48.977-7.3-123.913 33.276-221.508 79.637-301.187 144.371-79.613 64.678-142.947 149.009-196.503 260.523-6.861 14.287-7.825 28.064-3.843 38.69 7.604 20.287 19.008 39.295 35.22 57.819zM840.452 255.77l-131.204 106.018c25.963 14.242 58.991 12.228 83.273-7.39l26.722-21.594c25.801-20.847 33.075-52.988 21.21-77.035z" />
<glyph unicode="&#xe911;" glyph-name="call2" d="M250.738 753.873c49.107 36.523 114.1 28.379 157.855-6.976l28.796-23.267c61.184-49.439 68.911-139.712 17.028-198.839l-3.998-4.557c-21.705-24.738-22.285-54.374-7.65-71.070 24.004-27.375 57.242-52.681 108.809-81.596 27.703-15.535 63.898-8.802 86.528 16.99v0l2.782 3.17c49.152 56.021 133.888 63.287 191.855 16.448l26.722-21.589c48.627-39.292 69.146-111.424 30.537-168.653-27.955-41.438-59.546-74.402-97.071-101.419-30.784-22.161-69.137-26.253-102.967-17.169-130.253 34.978-236.625 84.749-324.945 156.506-88.387 71.804-157.086 164.318-213.839 282.489-12.349 25.713-17.674 57.923-6.080 88.858 19.212 51.261 54.735 92.815 105.639 130.673zM368.37 697.117c-24.97 20.177-57.594 21.649-79.438 5.402-44.206-32.878-70.214-65.256-83.904-101.78-3.983-10.627-3.018-24.404 3.843-38.69 53.556-111.514 116.89-195.845 196.503-260.524 79.678-64.734 177.274-111.091 301.187-144.367 18.167-4.881 36.083-1.984 48.977 7.296 30.942 22.281 57.361 49.626 81.408 85.274 16.495 24.448 10.33 60.429-17.702 83.076l-26.722 21.594c-31.258 25.254-77.013 21.338-103.526-8.879v0l-2.782-3.17c-40.845-46.549-109.658-62.157-165.935-30.605-54.925 30.797-95.004 60.301-125.628 95.228-42.478 48.448-27.803 115.055 7.666 155.476l3.997 4.555c27.903 31.799 23.747 80.269-9.146 106.848l-28.795 23.267zM824.137 186.748l-176.055 142.259 42.5 47.846 176.060-142.255-42.505-47.851zM413.388 518.677l-176.057 142.255 42.503 47.849 176.056-142.257-42.502-47.847z" />
<glyph unicode="&#xe912;" glyph-name="chartbar" d="M144 416c0 17.673 14.327 32 32 32h224c17.673 0 32-14.327 32-32s-14.327-32-32-32h-192v-256c0-17.673-14.327-32-32-32s-32 14.327-32 32v288zM80 128c0 17.673 14.327 32 32 32h800c17.673 0 32-14.327 32-32s-14.327-32-32-32h-800c-17.673 0-32 14.327-32 32zM368 608c0 17.673 14.327 32 32 32h224c17.673 0 32-14.327 32-32s-14.327-32-32-32h-192v-448c0-17.673-14.327-32-32-32s-32 14.327-32 32v480zM592 800c0 17.673 14.327 32 32 32h224c17.673 0 32-14.327 32-32v-672c0-17.673-14.327-32-32-32h-224c-17.673 0-32 14.327-32 32v672zM656 768v-608h160v608h-160z" />
<glyph unicode="&#xe913;" glyph-name="chartmetric" d="M471.808 611.95l0.009-0.006h0.055c0-104.471-0.021-208.936-0.064-313.397 0-11.712-3.571-22.106-12.262-30.758-3.435-3.43-7.398-6.054-11.639-7.868-13.73-5.862-30.41-3.277-41.902 7.77-8.634 8.324-11.961 18.918-11.961 30.613v467.383c0.056 1.521-0.003 3.044-0.177 4.556-2.637 17.429-18.528 31.281-35.82 32.078-2.716 0.122-5.362-0.032-7.916-0.433-18.857-2.939-32.716-19.41-32.645-37.853 0.058-15.936 0.103-31.873 0.133-47.81 0.096-50.1 0.051-100.2-0.133-150.302-0.073-5.292-1.066-10.53-2.933-15.481-5.509-14.787-20.233-24.311-35.388-24.401-2.929-0.009-5.876 0.333-8.779 1.062-17.958 4.493-30.010 19.899-30.010 38.353 0 4.602 0.012 9.203 0.024 13.802 0.028 10.593 0.055 21.179-0.064 31.763-0.137 11.87-5.331 21.655-14.666 28.564-11.334 8.392-23.444 10.717-35.575 6.294-2.84-1.033-5.681-2.435-8.513-4.215-11.038-6.932-17.656-17.127-17.656-30.609-0.046-107.499-0.046-215.002 0-322.505 0-10.709 4.42-19.597 12.154-26.603 9.113-8.273 20.055-11.392 32.374-9.468 2.648 0.41 5.215 1.118 7.665 2.086 0.323 0.128 0.645 0.256 0.964 0.393 13.506 5.764 23.258 19.46 23.258 34.368 0.061 45.35 0.061 90.705 0 136.064-0.017 12.655 4.266 23.253 13.949 31.586 3.303 2.82 7.031 5.035 11.011 6.579 4.883 1.89 10.145 2.769 15.467 2.539 9.673-0.422 18.826-4.501 25.612-11.409 7.831-7.863 11.277-17.707 11.272-28.86-0.030-98.487-0.030-196.975 0-295.462-0.045-1.229 0.004-2.466 0.148-3.691 3.355-21.756 23.614-36.198 44.529-32.303 3.558 0.661 6.861 1.651 9.892 2.974 9.683 4.211 16.585 11.806 20.092 22.903 1.283 4.066 1.418 8.533 1.551 12.928 0.028 0.93 0.056 1.86 0.095 2.778 0.15 3.563 0.167 7.138 0.184 10.709 0.027 5.534 0.054 11.063 0.573 16.55 0.98 10.351 6.231 18.816 14.313 25.335 3.345 2.701 7.096 4.753 11.054 6.144 10.74 3.767 22.998 2.671 32.828-3.533 11.362-7.168 18.227-17.6 18.295-30.955 0.213-41.698 0.192-83.401 0.175-125.099v-0.094c-0.013-20.13-0.021-40.265-0.004-60.395-0.055-2.931 0.277-5.862 0.986-8.708 4.335-15.991 14.434-26.15 30.921-29.218 8.192-1.527 15.731-0.542 22.558 2.709 3.767 1.792 7.317 4.275 10.645 7.407 8.371 7.872 11.789 17.89 11.789 29.167 0.004 196.497 0.017 392.998 0.038 589.499 0 10.725 4.211 19.866 11.895 27.066 3.085 2.888 6.511 5.225 10.146 6.974 10.816 5.184 23.497 5.171 34.551-1 13.099-7.336 20.501-18.705 20.548-33.457l0.055-36.029c0.090-120.299 0.137-240.602 0.145-360.9l-0.030-36.019c0-10.121 4.433-18.483 11.311-25.25 8.687-8.542 19.507-11.844 31.77-10.338 3.422 0.422 6.699 1.297 9.766 2.56 13.824 5.666 23.479 19.196 23.479 34.662-0.034 54.848-0.034 109.692 0 164.531-0.055 3.972 0.137 7.945 0.572 11.891 0.939 8.491 4.915 16.35 11.196 22.135 3.571 3.29 7.386 5.841 11.447 7.642 6.669 2.94 14.007 3.853 22.029 2.641 14.379-2.167 28.809-15.241 30.793-29.615 1.242-8.956 1.391-18.138 1.169-27.191-0.286-11.473 5.257-19.934 13.705-26.103 12.604-9.216 26.24-11.191 39.757-4.988 1.835 0.841 3.665 1.83 5.487 2.974 10.974 6.869 17.463 17.122 17.463 30.443l0.009 56.956c0.043 69.141 0.055 138.283 0.051 207.429l0.017 56.98c0.038 5.623-1.429 11.154-4.258 16.016-8.427 14.541-20.996 21.501-37.978 20.020-3.23-0.281-6.357-0.994-9.323-2.076-0.405-0.148-0.806-0.304-1.207-0.466-13.683-5.531-23.616-19.004-23.62-34.109 0-54.462-0.009-108.926-0.030-163.39 0-7.407-1.084-14.652-4.983-21.299-4.651-7.936-10.722-13.653-18.236-16.913-4.147-1.792-8.73-2.837-13.756-3.093-21.845-1.109-40.375 16.832-40.375 39.663l0.013 47.424c0.060 73.98 0.073 147.958 0.038 221.935v47.736c0.009 2.65-0.183 5.296-0.567 7.917-2.697 18.010-18.193 31.428-36.42 31.998-5.431 0.169-10.513-0.61-15.168-2.355-6.178-2.31-11.614-6.319-16.137-12.072-5.124-6.55-8.218-13.908-8.162-22.498 0.132-19.826 0.081-39.659 0-59.491 0.055-3.218-0.201-6.434-0.768-9.603-2.782-13.871-12.267-24.568-24.311-29.231-8.175-3.158-17.523-3.537-26.748-0.243-14.63 5.211-25.455 20.134-25.455 35.882 0.055 71.723 0.068 143.448 0.047 215.175 0.013 3.405-0.179 6.807-0.572 10.189-2.56 21.524-21.577 36.537-44.932 32.864-2.987-0.466-5.807-1.278-8.457-2.416-5.231-2.241-9.801-5.748-13.692-10.37-5.777-6.835-8.875-14.49-8.866-23.608l0.047-50.234c0.026-86.96 0.038-173.916 0.038-260.868zM0.184 439.838c0.125-0.418 0.251-0.836 0.346-1.263 2.569-11.499 8.851-20.134 19.57-25.331 5.75-2.743 12.103-3.989 18.465-3.614 4.022 0.188 7.782 0.866 11.272 2.052 7.019 2.377 12.943 6.788 17.702 13.325 3.122 4.297 5.023 8.969 5.941 13.897 0.64 3.426 0.803 6.972 0.569 10.598-0.826 13.018-6.801 23.040-18.1 29.679-6.994 4.092-14.649 5.312-22.68 4.663-3.331-0.273-6.462-0.905-9.396-1.903-6.564-2.236-12.143-6.285-16.764-12.156-0.266-0.337-0.522-0.683-0.771-1.028-2.249-3.123-3.811-6.541-4.969-10.138-0.533-1.651-0.98-3.337-1.368-5.056v-13.094l0.184-0.631zM973.265 410.155c19.183-0.725 34.987 11.959 38.379 29.935 0.068 0.367 0.132 0.738 0.192 1.109 0.422 2.662 0.576 5.431 0.435 8.29-0.9 17.839-15.71 36.587-40.503 34.88-11.674-0.823-22.554-7.317-28.638-17.365-0.414-0.687-0.806-1.391-1.178-2.108-2.628-5.107-4.066-11.017-3.853-17.489v-0.004c-0.751-21.41 16.393-36.544 35.166-37.248z" />
<glyph unicode="&#xe914;" glyph-name="checkmark-2" d="M903.369 664.535l-122.138 103.35-306.176-361.844-173.834 173.837-113.137-113.139 296.794-296.794 418.492 494.589z" />
<glyph unicode="&#xe915;" glyph-name="checkmark" d="M757.167 608.998c12.335-12.658 12.070-32.918-0.589-45.251l-280.785-278.918c-6.131-5.978-14.409-9.246-22.972-9.075s-16.7 3.767-22.588 9.984l-165.464 168.772c-12.155 12.83-11.607 33.084 1.222 45.235 12.83 12.156 33.084 11.61 45.239-1.22l143.144-145.212 257.54 256.272c12.659 12.334 32.917 12.070 45.252-0.588z" />
<glyph unicode="&#xe916;" glyph-name="circle-add" d="M512 810.667c-200.295 0-362.667-162.371-362.667-362.667s162.371-362.667 362.667-362.667c200.294 0 362.667 162.372 362.667 362.667s-162.372 362.667-362.667 362.667zM85.333 448c0 235.642 191.025 426.667 426.667 426.667 235.639 0 426.667-191.025 426.667-426.667 0-235.639-191.027-426.667-426.667-426.667-235.642 0-426.667 191.027-426.667 426.667zM512 661.333c17.673 0 32-14.327 32-32v-149.333h149.333c17.673 0 32-14.327 32-32s-14.327-32-32-32h-149.333v-149.333c0-17.673-14.327-32-32-32s-32 14.327-32 32v149.333h-149.333c-17.673 0-32 14.327-32 32s14.327 32 32 32h149.333v149.333c0 17.673 14.327 32 32 32z" />
<glyph unicode="&#xe917;" glyph-name="circle-checked" d="M512 810.667c-200.295 0-362.667-162.371-362.667-362.667s162.371-362.667 362.667-362.667c200.294 0 362.667 162.372 362.667 362.667s-162.372 362.667-362.667 362.667zM85.333 448c0 235.642 191.025 426.667 426.667 426.667 235.639 0 426.667-191.025 426.667-426.667 0-235.639-191.027-426.667-426.667-426.667-235.642 0-426.667 191.027-426.667 426.667zM695.501 554.242l-58.283 51.623-146.108-180.738-82.955 86.831-53.989-56.512 141.629-148.245 199.706 247.042z" />
<glyph unicode="&#xe918;" glyph-name="circle-cross" d="M512 810.667c-200.295 0-362.667-162.371-362.667-362.667s162.371-362.667 362.667-362.667c200.294 0 362.667 162.372 362.667 362.667s-162.372 362.667-362.667 362.667zM85.333 448c0 235.642 191.025 426.667 426.667 426.667 235.639 0 426.667-191.025 426.667-426.667 0-235.639-191.027-426.667-426.667-426.667-235.642 0-426.667 191.027-426.667 426.667zM350.706 609.294c12.497 12.497 32.758 12.497 45.255 0l116.039-116.038 116.041 116.038c12.497 12.497 32.755 12.497 45.252 0s12.497-32.758 0-45.255l-116.036-116.039 116.036-116.041c12.497-12.497 12.497-32.755 0-45.252s-32.755-12.497-45.252 0l-116.041 116.036-116.039-116.036c-12.497-12.497-32.758-12.497-45.255 0s-12.497 32.755 0 45.252l116.038 116.041-116.038 116.039c-12.497 12.497-12.497 32.758 0 45.255z" />
<glyph unicode="&#xe919;" glyph-name="circle-down" d="M149.333 448c0-200.294 162.371-362.667 362.667-362.667s362.667 162.372 362.667 362.667c0 200.295-162.372 362.667-362.667 362.667s-362.667-162.371-362.667-362.667zM512 21.333c-235.642 0-426.667 191.027-426.667 426.667 0 235.642 191.025 426.667 426.667 426.667 235.639 0 426.667-191.025 426.667-426.667 0-235.639-191.027-426.667-426.667-426.667zM351.559 439.45c12.951 12.023 33.198 11.277 45.224-1.677l83.217-89.617v281.178c0 17.673 14.327 32 32 32s32-14.327 32-32v-281.178l83.217 89.617c12.028 12.954 32.273 13.7 45.222 1.677 12.954-12.028 13.7-32.273 1.677-45.222l-138.667-149.333c-6.054-6.524-14.549-10.227-23.45-10.227s-17.395 3.703-23.45 10.227l-138.667 149.333c-12.026 12.949-11.276 33.195 1.675 45.222z" />
<glyph unicode="&#xe91a;" glyph-name="circle-left" d="M512 810.667c-200.295 0-362.667-162.371-362.667-362.667s162.371-362.667 362.667-362.667c200.294 0 362.667 162.372 362.667 362.667s-162.372 362.667-362.667 362.667zM85.333 448c0 235.642 191.025 426.667 426.667 426.667 235.639 0 426.667-191.025 426.667-426.667 0-235.639-191.027-426.667-426.667-426.667-235.642 0-426.667 191.027-426.667 426.667zM503.45 608.441c12.023-12.951 11.277-33.198-1.677-45.224l-89.617-83.217h281.178c17.673 0 32-14.327 32-32s-14.327-32-32-32h-281.178l89.617-83.217c12.954-12.028 13.7-32.273 1.677-45.222-12.028-12.954-32.273-13.7-45.222-1.677l-149.335 138.667c-6.52 6.054-10.225 14.549-10.225 23.45s3.705 17.395 10.225 23.45l149.335 138.666c12.949 12.026 33.195 11.276 45.222-1.675z" />
<glyph unicode="&#xe91b;" glyph-name="circle-right" d="M512 810.667c-200.295 0-362.667-162.371-362.667-362.667s162.371-362.667 362.667-362.667c200.294 0 362.667 162.372 362.667 362.667s-162.372 362.667-362.667 362.667zM85.333 448c0 235.642 191.025 426.667 426.667 426.667 235.639 0 426.667-191.025 426.667-426.667 0-235.639-191.027-426.667-426.667-426.667-235.642 0-426.667 191.027-426.667 426.667zM520.55 608.441c12.028 12.951 32.273 13.701 45.227 1.675l149.333-138.666c6.519-6.054 10.223-14.554 10.223-23.45 0-8.9-3.703-17.395-10.223-23.45l-149.333-138.667c-12.954-12.028-33.199-11.277-45.227 1.677-12.023 12.949-11.273 33.195 1.677 45.222l89.617 83.217h-281.176c-17.673 0-32 14.327-32 32s14.327 32 32 32h281.176l-89.617 83.217c-12.949 12.026-13.7 32.273-1.677 45.224z" />
<glyph unicode="&#xe91c;" glyph-name="circle-up" d="M149.333 448c0 200.295 162.371 362.667 362.667 362.667s362.667-162.371 362.667-362.667c0-200.294-162.372-362.667-362.667-362.667s-362.667 162.372-362.667 362.667zM512 874.667c-235.642 0-426.667-191.025-426.667-426.667 0-235.639 191.025-426.667 426.667-426.667 235.639 0 426.667 191.027 426.667 426.667 0 235.642-191.027 426.667-426.667 426.667zM351.559 456.55c12.951-12.023 33.198-11.277 45.224 1.677l83.217 89.617v-281.178c0-17.673 14.327-32 32-32s32 14.327 32 32v281.178l83.217-89.617c12.028-12.954 32.273-13.7 45.222-1.677 12.954 12.028 13.7 32.273 1.677 45.222l-138.667 149.335c-6.054 6.52-14.549 10.225-23.45 10.225s-17.395-3.705-23.45-10.225l-138.667-149.335c-12.026-12.949-11.276-33.195 1.675-45.222z" />
<glyph unicode="&#xe91d;" glyph-name="circle" d="M512 810.667c-200.295 0-362.667-162.371-362.667-362.667s162.371-362.667 362.667-362.667c200.294 0 362.667 162.372 362.667 362.667s-162.372 362.667-362.667 362.667zM85.333 448c0 235.642 191.025 426.667 426.667 426.667 235.639 0 426.667-191.025 426.667-426.667 0-235.639-191.027-426.667-426.667-426.667-235.642 0-426.667 191.027-426.667 426.667z" />
<glyph unicode="&#xe91e;" glyph-name="close" d="M305.245 695.207c-11.266 11.724-29.531 11.724-40.796 0s-11.266-30.732 0-42.456l205.217-213.566-205.171-213.521c-11.265-11.725-11.265-30.733 0-42.458s29.531-11.725 40.796 0l205.172 213.521 205.154-213.5c11.264-11.725 29.53-11.725 40.798 0 11.264 11.725 11.264 30.733 0 42.453l-205.154 213.504 205.197 213.546c11.268 11.724 11.268 30.732 0 42.456-11.264 11.724-29.53 11.724-40.794 0l-205.201-213.549-205.219 213.569z" />
<glyph unicode="&#xe91f;" glyph-name="comment-filled" d="M180 768h662.334c41.357 0 74.999-32.614 74.999-72.708v-442.053c0-40.094-33.643-72.708-74.999-72.708h-327.539l-213.785-117.632c-7.217-6.997-18.028-8.986-27.247-5.257-9.352 3.742-15.43 12.595-15.43 22.391v100.497h-76.667c-41.356 0-75 32.614-75 72.708v442.053c0 40.093 31.977 72.708 73.333 72.708z" />
<glyph unicode="&#xe920;" glyph-name="comment" d="M318.067 240.265v-99.802l181.381 99.802h342.886c10.129 0 15.266 7.607 15.266 12.975v442.053c0 5.37-5.137 12.975-15.266 12.975h-662.334c-8.36 0-13.6-5.865-13.6-12.975v-442.053c0-5.367 5.139-12.975 15.267-12.975h136.4zM180 768h662.334c41.357 0 74.999-32.614 74.999-72.708v-442.053c0-40.094-33.643-72.708-74.999-72.708h-327.539l-213.785-117.632c-7.217-6.997-18.028-8.986-27.247-5.257-9.352 3.742-15.43 12.595-15.43 22.391v100.497h-76.667c-41.356 0-75 32.614-75 72.708v442.053c0 40.093 31.977 72.708 73.333 72.708z" />
<glyph unicode="&#xe921;" glyph-name="connections" d="M580.855 861.442c11.802-5.025 19.465-16.614 19.465-29.443v-298.589h167.68c11.379 0 21.901-6.041 27.639-15.872 5.734-9.826 5.82-21.965 0.222-31.872l-20.996-37.154c-79.62-140.915-181.163-268.258-300.813-377.25l-33.941-30.921c-9.37-8.533-22.891-10.735-34.482-5.615-11.591 5.124-19.069 16.602-19.069 29.274v296.055h-173.227c-17.673 0-32 14.327-32 32 0 5.726 1.503 11.098 4.136 15.748 75.042 138.728 171.118 264.999 284.812 374.321l75.861 72.942c9.246 8.891 22.908 11.401 34.714 6.376zM268.142 424.055h150.418c17.673 0 32-14.323 32-32v-255.287c103.194 97.515 191.646 209.57 262.545 332.642h-144.785c-17.673 0-32 14.327-32 32v255.427l-21.679-20.846c-96.034-92.34-178.947-197.3-246.499-311.936z" />
<glyph unicode="&#xe922;" glyph-name="diamond" d="M278.843 821.333h466.33c24.964 0 48.277-12.477 62.127-33.249l153.139-229.711c9.378-14.063 10.496-32.072 2.94-47.189-83.802-167.603-200.265-316.762-342.537-438.711l-74.697-64.030c-19.644-16.836-48.631-16.836-68.271 0l-74.699 64.030c-142.275 121.95-258.736 271.108-342.537 438.711-7.559 15.117-6.438 33.126 2.938 47.189l153.14 229.711c13.848 20.772 37.161 33.249 62.126 33.249zM269.968 752.584l-127.245-190.868 59.977-6.313c29.968-3.154 59.973-5.849 90.003-8.084 0.957 4.731 2.378 9.39 4.26 13.907l81.711 196.108h-99.832c-3.566 0-6.897-1.783-8.875-4.75zM139.898 497.66c76.518-140.373 177.559-266.039 298.433-370.991l-133.352 355.605c-36.367 2.5-72.699 5.662-108.979 9.481l-56.102 5.905zM374.828 478.285l137.181-365.815 137.182 365.815c-91.405-4.156-182.955-4.156-274.363 0zM719.040 482.274l-133.355-355.605c120.875 104.951 221.918 230.618 298.436 370.991l-56.102-5.905c-36.284-3.819-72.614-6.98-108.979-9.481zM881.293 561.716l-127.245 190.868c-1.975 2.967-5.308 4.75-8.875 4.75h-99.831l81.711-196.108c1.886-4.517 3.307-9.176 4.262-13.907 30.029 2.235 60.032 4.93 90.001 8.084l59.977 6.313zM665.254 543.145l-89.246 214.189h-128l-89.245-214.189c102.096-5.302 204.398-5.302 306.491 0z" />
<glyph unicode="&#xe923;" glyph-name="discord" d="M865.643 716.279c-66.667 30.603-137.075 52.294-209.408 64.512-9.894-17.572-18.782-35.692-26.624-54.272-76.902 11.263-155.034 11.263-231.935 0-7.168 16.896-17.92 38.4-26.624 54.272-72.716-11.983-143.494-33.681-210.432-64.512-117.934-167.177-171.068-371.529-149.504-574.976v0c77.484-56.951 164.036-100.403 256-128.512 20.878 27.823 39.213 57.468 54.784 88.576-29.901 11.115-58.698 24.998-86.016 41.472l20.992 16.384c80.040-37.833 167.47-57.455 255.999-57.455 88.533 0 175.962 19.622 256 57.455 7.168-5.632 13.824-11.264 21.504-16.384-27.725-16.38-56.853-30.259-87.040-41.472 16.077-31.155 34.927-60.8 56.32-88.576 91.964 28.109 178.517 71.561 256 128.512 21.372 203.507-31.945 407.849-150.016 574.976v0zM345.452 255.479c-12.715 0.717-25.163 3.938-36.631 9.481-11.468 5.538-21.729 13.286-30.196 22.801-8.467 9.51-14.973 20.604-19.144 32.636s-5.927 24.772-5.166 37.483c-0.831 12.727 0.876 25.493 5.022 37.555s10.647 23.181 19.127 32.708c8.48 9.527 18.768 17.276 30.268 22.793s23.981 8.691 36.719 9.344c12.761-0.585 25.277-3.712 36.809-9.207s21.849-13.239 30.342-22.784c8.493-9.54 14.99-20.689 19.111-32.781 4.117-12.092 5.777-24.883 4.873-37.628 0.981-25.331-8.017-50.035-25.059-68.8s-40.768-30.097-66.076-31.552v-2.048zM681.835 255.479c-25.63 1.583-49.596 13.239-66.667 32.422-17.075 19.183-25.869 44.335-24.469 69.978-0.759 12.715 0.994 25.451 5.167 37.483s10.675 23.125 19.145 32.636c8.465 9.515 18.726 17.263 30.195 22.801 11.469 5.542 23.915 8.764 36.629 9.481 12.762-0.585 25.276-3.712 36.809-9.207s21.85-13.239 30.345-22.784c8.491-9.54 14.989-20.689 19.11-32.781 4.117-12.092 5.773-24.883 4.873-37.628 1.118-25.365-7.838-50.146-24.905-68.941-17.071-18.795-40.875-30.084-66.231-31.411v-2.048z" />
<glyph unicode="&#xe924;" glyph-name="dollar" d="M512 896c17.673 0 32-14.327 32-32v-832c0-17.673-14.327-32-32-32s-32 14.327-32 32v832c0 17.673 14.327 32 32 32zM296.236 743.764c36.007 36.007 84.843 56.236 135.764 56.236h144c25.212 0 50.18-4.966 73.476-14.615 23.292-9.649 44.459-23.792 62.289-41.62 17.826-17.829 31.97-38.995 41.621-62.289 9.647-23.295 14.613-48.262 14.613-73.475 0-17.673-14.327-32-32-32s-32 14.327-32 32c0 16.809-3.311 33.454-9.745 48.983-6.43 15.53-15.859 29.64-27.746 41.526s-25.997 21.314-41.523 27.747c-15.531 6.432-32.175 9.743-48.986 9.743h-144c-33.948 0-66.505-13.486-90.51-37.49s-37.49-56.562-37.49-90.51c0-33.948 13.486-66.505 37.49-90.509s56.562-37.491 90.51-37.491h176c50.923 0 99.759-20.228 135.765-56.235s56.235-84.843 56.235-135.765c0-50.923-20.228-99.759-56.235-135.765s-84.843-56.235-135.765-56.235h-192c-50.921 0-99.758 20.228-135.764 56.235s-56.236 84.843-56.236 135.765c0 17.673 14.327 32 32 32s32-14.327 32-32c0-33.946 13.486-66.505 37.49-90.509s56.562-37.491 90.51-37.491h192c33.946 0 66.505 13.487 90.509 37.491s37.491 56.563 37.491 90.509c0 33.95-13.487 66.505-37.491 90.509s-56.563 37.491-90.509 37.491h-176c-50.921 0-99.758 20.228-135.764 56.235s-56.236 84.844-56.236 135.765c0 50.921 20.229 99.758 56.236 135.764z" />
<glyph unicode="&#xe925;" glyph-name="down" d="M758.097 588.481c12.783-12.203 13.252-32.459 1.050-45.243l-224-234.668c-6.037-6.323-14.4-9.903-23.147-9.903s-17.109 3.58-23.147 9.903l-224.001 234.668c-12.203 12.784-11.732 33.040 1.052 45.242s33.040 11.732 45.243-1.052l200.852-210.417 200.853 210.417c12.203 12.784 32.457 13.255 45.244 1.052z" />
<glyph unicode="&#xe926;" glyph-name="download" d="M512 832.010c17.673 0 32-14.327 32-32v-451.65l125.85 135.97c12.002 12.971 32.252 13.756 45.218 1.749 12.971-12.006 13.756-32.252 1.749-45.222l-181.333-195.917c-6.054-6.545-14.566-10.266-23.484-10.266s-17.429 3.721-23.484 10.266l-181.334 195.917c-12.005 12.971-11.222 33.216 1.748 45.222s33.216 11.221 45.221-1.749l125.849-135.97v451.65c0 17.673 14.327 32 32 32zM160 435.076c17.673 0 32-14.323 32-32v-221.76c0-29.457 23.878-53.333 53.333-53.333h533.333c29.457 0 53.333 23.876 53.333 53.333v221.163c0 17.673 14.327 32 32 32s32-14.327 32-32v-221.163c0-64.802-52.531-117.333-117.333-117.333h-533.333c-64.801 0-117.333 52.531-117.333 117.333v221.76c0 17.677 14.327 32 32 32z" />
<glyph unicode="&#xe927;" glyph-name="end-call" d="M696.060 491.507c-56.41 16.96-114.735 26.714-173.589 29.026-67.665 1.609-135.092-8.593-199.251-30.148-2.32-0.695-4.455-1.899-6.25-3.524s-3.205-3.631-4.126-5.871c-2.774-7.629-4.059-15.723-3.786-23.834 0.351-9.399 1.288-18.765 2.804-28.045 5.889-42.065 13.041-95.347-33.932-112.175l-3.085-0.981-168.262-45.431h-1.683c-11.264-2.048-22.863-1.22-33.721 2.406s-20.626 9.937-28.396 18.347c-18.050 19.524-30.964 43.23-37.578 68.988-8.578 32.175-6.512 66.266 5.889 97.169 11.383 28.928 26.77 56.115 45.711 80.767 27.853 37.681 64.098 68.358 105.865 89.599 45.92 22.961 94.601 39.926 144.845 50.479l4.066 0.981c25.66 4.627 53.704 11.919 82.869 16.265 117.801 16.468 237.72 8.884 352.506-22.295 96.333-28.044 182.285-76.138 235.567-150.034 29.922-38.157 44.527-86.11 40.943-134.468-3.021-23.249-10.624-45.666-22.37-65.958-11.742-20.288-27.396-38.046-46.054-52.245-2.377-2.091-5.239-3.546-8.329-4.228-3.089-0.687-6.302-0.585-9.34 0.303l-185.088 47.394c-9.865 0.704-19.319 4.224-27.247 10.138s-13.995 13.978-17.481 23.232c-5.939 18.099-7.006 37.449-3.085 56.090 0.627 7.526 1.66 15.014 3.085 22.434 4.207 26.5 8.832 56.93-12.48 66.185l0.981-0.563z" />
<glyph unicode="&#xe928;" glyph-name="equalizer" d="M112 576c0 17.673 14.327 32 32 32h160c17.673 0 32-14.327 32-32s-14.327-32-32-32h-160c-17.673 0-32 14.327-32 32zM112 448c0 17.673 14.327 32 32 32h160c17.673 0 32-14.327 32-32s-14.327-32-32-32h-160c-17.673 0-32 14.327-32 32zM112 320c0 17.673 14.327 32 32 32h160c17.673 0 32-14.327 32-32s-14.327-32-32-32h-160c-17.673 0-32 14.327-32 32zM112 192c0 17.673 14.327 32 32 32h160c17.673 0 32-14.327 32-32s-14.327-32-32-32h-160c-17.673 0-32 14.327-32 32zM400 448c0 17.673 14.327 32 32 32h160c17.673 0 32-14.327 32-32s-14.327-32-32-32h-160c-17.673 0-32 14.327-32 32zM400 320c0 17.673 14.327 32 32 32h160c17.673 0 32-14.327 32-32s-14.327-32-32-32h-160c-17.673 0-32 14.327-32 32zM400 192c0 17.673 14.327 32 32 32h160c17.673 0 32-14.327 32-32s-14.327-32-32-32h-160c-17.673 0-32 14.327-32 32zM688 576c0 17.673 14.327 32 32 32h160c17.673 0 32-14.327 32-32s-14.327-32-32-32h-160c-17.673 0-32 14.327-32 32zM688 704c0 17.673 14.327 32 32 32h160c17.673 0 32-14.327 32-32s-14.327-32-32-32h-160c-17.673 0-32 14.327-32 32zM688 448c0 17.673 14.327 32 32 32h160c17.673 0 32-14.327 32-32s-14.327-32-32-32h-160c-17.673 0-32 14.327-32 32zM688 320c0 17.673 14.327 32 32 32h160c17.673 0 32-14.327 32-32s-14.327-32-32-32h-160c-17.673 0-32 14.327-32 32zM688 192c0 17.673 14.327 32 32 32h160c17.673 0 32-14.327 32-32s-14.327-32-32-32h-160c-17.673 0-32 14.327-32 32z" />
<glyph unicode="&#xe929;" glyph-name="eye_slash" d="M446.626 385.293c12.497 12.497 32.759 12.497 45.257 0 6.933-6.933 15.164-12.433 24.222-16.188 9.062-3.75 18.769-5.683 28.574-5.683s19.516 1.933 28.574 5.683c9.058 3.75 17.293 9.25 24.226 16.183s12.433 15.168 16.183 24.226c3.755 9.058 5.687 18.769 5.687 28.574s-1.933 19.516-5.683 28.574c-3.755 9.058-9.254 17.289-16.188 24.222-12.497 12.497-12.497 32.759 0 45.256s32.759 12.496 45.257-0.001c12.877-12.875 23.091-28.163 30.059-44.986s10.556-34.859 10.556-53.069c0-18.21-3.588-36.241-10.56-53.065-6.967-16.823-17.182-32.107-30.059-44.983s-28.164-23.091-44.988-30.059c-16.823-6.967-34.854-10.556-53.065-10.556s-36.241 3.588-53.065 10.556c-16.823 6.972-32.111 17.186-44.988 30.063-12.497 12.497-12.497 32.755 0 45.252zM511.962 674.131c-155.878 0-277.469-89.039-383.193-219.249-3.27-4.028-3.268-9.745-0.003-13.769 29.582-36.433 60.506-69.747 93.152-98.807 12.32-10.965 13.417-29.845 2.45-42.167-10.967-12.318-29.846-13.419-42.167-2.449-35.54 31.637-68.661 67.413-99.808 105.775-21.085 25.967-21.078 63.108 0.003 89.071 110.651 136.278 247.525 241.329 429.565 241.329 16.495 0 29.867-13.372 29.867-29.867s-13.372-29.867-29.867-29.867zM686.251 667.324c7.753 14.561 25.839 20.082 40.401 12.332 82.197-43.75 152.61-110.434 214.874-187.121 21.086-25.967 21.082-63.113 0-89.075-110.652-136.277-247.526-241.327-429.564-241.327-71.010 0-135.575 16.051-194.557 44.070-14.899 7.078-21.24 24.892-14.162 39.791s24.894 21.244 39.793 14.165c51.441-24.439 107.286-38.293 168.926-38.293 155.878 0 277.47 89.037 383.194 219.247 3.268 4.023 3.268 9.745 0 13.769-59.371 73.118-123.895 133.363-196.57 172.044-14.562 7.75-20.083 25.836-12.335 40.398zM880.644 850.19c12.766-12.222 13.205-32.478 0.986-45.244l-730.533-763.055c-12.222-12.766-32.478-13.205-45.244-0.986-12.766 12.224-13.207 32.478-0.985 45.244l730.533 763.056c12.224 12.766 32.478 13.207 45.244 0.985z" />
<glyph unicode="&#xe92a;" glyph-name="eye" d="M511.962 674.131c-155.879 0-277.47-89.039-383.194-219.249-3.268-4.023-3.268-9.745 0-13.769 105.724-130.21 227.315-219.247 383.194-219.247 155.874 0 277.466 89.037 383.189 219.247 3.268 4.023 3.268 9.745 0 13.769-105.724 130.21-227.315 219.249-383.189 219.249zM82.395 492.535c110.651 136.278 247.525 241.329 429.566 241.329 182.037 0 318.912-105.051 429.564-241.329 21.082-25.967 21.082-63.108 0-89.075-110.652-136.277-247.526-241.327-429.564-241.327-182.041 0-318.915 105.050-429.566 241.327-21.082 25.967-21.082 63.108 0 89.075zM511.949 524.8c-42.415 0-76.8-34.385-76.8-76.8 0-42.419 34.385-76.8 76.8-76.8s76.8 34.381 76.8 76.8c0 42.415-34.385 76.8-76.8 76.8zM375.417 448c0 75.405 61.127 136.531 136.532 136.531s136.533-61.126 136.533-136.531c0-75.409-61.129-136.533-136.533-136.533s-136.532 61.124-136.532 136.533z" />
<glyph unicode="&#xe92b;" glyph-name="facebook" d="M362.667 590.222h-106.667v-142.222h106.667v-426.667h177.779v426.667h128l14.221 142.222h-142.221v60.445c0 32 7.108 46.222 39.108 46.222h103.113v177.778h-135.113c-127.999 0-184.887-56.889-184.887-163.555v-120.889z" />
<glyph unicode="&#xe92c;" glyph-name="feedback" d="M561.826 859.805c-15.684 48.26-83.959 48.261-99.639 0l-61.662-189.776h-199.542c-50.744 0-71.843-64.934-30.79-94.761l161.433-117.288-61.662-189.777c-15.681-48.26 39.555-88.393 80.608-58.564l161.431 117.286 161.434-117.286c41.054-29.828 96.29 10.304 80.61 58.564l-61.662 189.777 161.434 117.288c41.050 29.827 19.951 94.761-30.793 94.761h-199.539l-61.662 189.776zM464.183 634.793l47.821 147.183 47.825-147.183c7.010-21.583 27.123-36.195 49.818-36.195h154.756l-125.201-90.963c-18.359-13.342-26.039-36.983-19.029-58.569l47.825-147.179-125.201 90.961c-18.359 13.342-43.221 13.342-61.581 0l-125.201-90.961 47.823 147.179c7.013 21.585-0.669 45.227-19.029 58.569l-125.201 90.963h154.757c22.692 0 42.805 14.613 49.819 36.195zM333.429 89.207c-0.651-19.716 14.803-36.224 34.517-36.877 19.715-0.649 36.224 14.805 36.875 34.517l1.572 47.595c0.651 19.716-14.803 36.224-34.517 36.877-19.715 0.649-36.224-14.805-36.875-34.517l-1.572-47.595zM653.53 42.901c-19.716 0.653-35.17 17.161-34.517 36.877l1.57 47.595c0.653 19.712 17.161 35.166 36.877 34.517 19.716-0.653 35.17-17.161 34.517-36.877l-1.574-47.595c-0.649-19.716-17.161-35.17-36.873-34.517zM474.679 36.894c-0.653-19.716 14.801-36.224 34.517-36.877 19.712-0.649 36.224 14.805 36.873 34.517l3.145 95.189c0.653 19.716-14.801 36.224-34.517 36.877-19.712 0.653-36.224-14.801-36.873-34.517l-3.145-95.189z" />
<glyph unicode="&#xe92d;" glyph-name="filter" d="M96 704c0 17.673 14.327 32 32 32h128c17.673 0 32-14.327 32-32s-14.327-32-32-32h-128c-17.673 0-32 14.327-32 32zM96 192c0 17.673 14.327 32 32 32h128c17.673 0 32-14.327 32-32s-14.327-32-32-32h-128c-17.673 0-32 14.327-32 32zM565.333 704c0 17.673 14.327 32 32 32h298.667c17.673 0 32-14.327 32-32s-14.327-32-32-32h-298.667c-17.673 0-32 14.327-32 32zM565.333 192c0 17.673 14.327 32 32 32h298.667c17.673 0 32-14.327 32-32s-14.327-32-32-32h-298.667c-17.673 0-32 14.327-32 32zM96 448c0 17.673 14.327 32 32 32h512c17.673 0 32-14.327 32-32s-14.327-32-32-32h-512c-17.673 0-32 14.327-32 32zM309.333 725.333c0 53.019 42.981 96 96 96h42.667c53.018 0 96-42.981 96-96v-42.667c0-53.019-42.982-96-96-96h-42.667c-53.019 0-96 42.981-96 96v42.667zM405.333 757.333c-17.673 0-32-14.327-32-32v-42.667c0-17.673 14.327-32 32-32h42.667c17.673 0 32 14.327 32 32v42.667c0 17.673-14.327 32-32 32h-42.667zM309.333 213.333c0 53.018 42.981 96 96 96h42.667c53.018 0 96-42.982 96-96v-42.667c0-53.018-42.982-96-96-96h-42.667c-53.019 0-96 42.982-96 96v42.667zM405.333 245.333c-17.673 0-32-14.327-32-32v-42.667c0-17.673 14.327-32 32-32h42.667c17.673 0 32 14.327 32 32v42.667c0 17.673-14.327 32-32 32h-42.667zM693.333 469.333c0 53.018 42.982 96 96 96h42.667c53.018 0 96-42.982 96-96v-42.667c0-53.018-42.982-96-96-96h-42.667c-53.018 0-96 42.982-96 96v42.667zM789.333 501.333c-17.673 0-32-14.327-32-32v-42.667c0-17.673 14.327-32 32-32h42.667c17.673 0 32 14.327 32 32v42.667c0 17.673-14.327 32-32 32h-42.667z" />
<glyph unicode="&#xe92e;" glyph-name="gallery" d="M181.333 525.73c0 83.654 67.814 151.468 151.467 151.468h443.733c83.652 0 151.467-67.814 151.467-151.468v-358.4c0-83.652-67.814-151.467-151.467-151.467h-443.733c-83.653 0-151.467 67.814-151.467 151.467v358.4zM332.8 613.198c-48.306 0-87.467-39.16-87.467-87.468v-358.4c0-48.307 39.16-87.467 87.467-87.467h443.733c48.307 0 87.467 39.159 87.467 87.467v358.4c0 48.308-39.159 87.468-87.467 87.468h-443.733zM424.684 410.526c-5.273 6.524-15.665 4.689-18.386-3.247l-57.995-169.152c-2.374-6.925 2.771-14.127 10.090-14.127h369.838c8.653 0 13.705 9.762 8.708 16.828l-75.9 107.332c-3.891 5.504-11.844 6.063-16.469 1.161l-33.109-35.119c-31.031-32.909-83.968-30.891-112.401 4.292l-74.375 92.032zM345.757 428.036c19.044 55.543 91.793 68.386 128.704 22.716l74.377-92.032c4.062-5.026 11.622-5.312 16.055-0.61l33.109 35.115c32.363 34.325 88.051 30.404 115.29-8.111l75.904-107.337c34.97-49.455-0.397-117.777-60.966-117.777h-369.838c-51.233 0-87.247 50.419-70.63 98.884l57.995 169.152zM768 490.667c0-23.565-19.102-42.667-42.667-42.667s-42.667 19.102-42.667 42.667c0 23.565 19.102 42.667 42.667 42.667s42.667-19.102 42.667-42.667zM235.594 722.487c-47.087-9.778-77.427-55.741-67.921-102.911l59.328-294.4c3.491-17.323-7.723-34.197-25.048-37.692-17.325-3.49-34.199 7.727-37.691 25.050l-59.328 294.399c-16.454 81.649 36.070 161.277 117.647 178.217l191 39.665c62.425 12.964 143.069 28.183 206.233 39.832 74.569 13.752 148.706-30.239 169.143-104.605 7.407-26.968 14.784-55.758 19.951-80.637 3.593-17.304-7.522-34.245-24.823-37.838-17.306-3.593-34.244 7.521-37.841 24.825-4.766 22.953-11.738 50.258-18.999 76.693-11.294 41.092-52.642 66.587-95.825 58.624-63.087-11.634-143.142-26.746-204.826-39.556l-191-39.665z" />
<glyph unicode="&#xe92f;" glyph-name="gear" d="M417.918 756.8c22.649 100.267 165.514 100.267 188.162 0l1.813-8.021c4.941-21.864 30.029-32.257 48.981-20.289l6.955 4.391c86.912 54.884 187.934-46.137 133.052-133.052l-4.39-6.953c-11.968-18.953-1.579-44.043 20.288-48.981l8.021-1.812c100.267-22.649 100.267-165.514 0-188.162l-8.021-1.813c-21.867-4.941-32.256-30.029-20.288-48.981l4.39-6.955c54.882-86.912-46.14-187.934-133.052-133.052v0l-6.955 4.39c-18.953 11.968-44.041 1.579-48.981-20.288l-1.813-8.021c-22.647-100.267-165.513-100.267-188.162 0l-1.812 8.021c-4.939 21.867-30.029 32.256-48.981 20.288l-6.953-4.39c-86.915-54.882-187.936 46.14-133.052 133.052v0l4.391 6.955c11.968 18.953 1.575 44.041-20.289 48.981l-8.021 1.813c-100.267 22.647-100.267 165.513 0 188.162v0l8.021 1.812c21.864 4.939 32.257 30.029 20.289 48.981l-4.391 6.953c-54.884 86.915 46.137 187.936 133.052 133.052l6.953-4.391c18.953-11.968 44.043-1.575 48.981 20.289l1.812 8.021zM543.654 742.698c-7.62 33.736-55.689 33.736-63.309 0l-1.813-8.021c-14.677-64.983-89.249-95.872-145.579-60.302l-6.953 4.391c-29.243 18.467-63.233-15.523-44.766-44.766l4.391-6.953c35.57-56.33 4.682-130.902-60.302-145.579v0l-8.021-1.813c-33.736-7.62-33.736-55.689 0-63.309l8.021-1.813c64.983-14.677 95.872-89.25 60.302-145.579v0l-4.391-6.955c-18.467-29.244 15.523-63.232 44.766-44.766l6.953 4.39c56.33 35.571 130.902 4.685 145.579-60.301l1.813-8.021c7.62-33.737 55.689-33.737 63.309 0l1.813 8.021c14.677 64.986 89.25 95.872 145.579 60.301v0l6.955-4.39c29.244-18.466 63.232 15.522 44.766 44.766l-4.39 6.955c-35.571 56.329-4.685 130.901 60.301 145.579l8.021 1.813c33.737 7.62 33.737 55.689 0 63.309l-8.021 1.813c-64.986 14.677-95.872 89.249-60.301 145.579l4.39 6.953c18.466 29.243-15.522 63.232-44.766 44.766l-6.955-4.391c-56.329-35.57-130.901-4.682-145.579 60.302l-1.813 8.021zM512 512c-35.345 0-64-28.655-64-64s28.655-64 64-64c35.345 0 64 28.655 64 64s-28.655 64-64 64zM384 448c0 70.694 57.306 128 128 128s128-57.306 128-128c0-70.694-57.306-128-128-128s-128 57.306-128 128z" />
<glyph unicode="&#xe930;" glyph-name="personalSiteglobe" d="M173.361 629.199c3.281 6.119 6.722 12.14 10.319 18.055 67.312 110.696 189.153 184.747 328.32 184.747s261.009-74.051 328.32-184.747c3.597-5.915 7.040-11.936 10.317-18.055 3.541-3.999 6.093-8.89 7.283-14.292 24.405-50.493 38.080-107.134 38.080-166.906 0-212.079-171.921-384-384-384-212.077 0-384 171.921-384 384 0 59.772 13.676 116.412 38.080 166.906 1.188 5.403 3.742 10.294 7.281 14.293zM255.973 640h70.38c8.099 25.89 17.825 49.908 28.978 71.556 3.914 7.598 8.069 15.013 12.458 22.19-44.104-22.301-82.352-54.519-111.817-93.746zM480 759.715c-23.074-11.845-46.822-36.798-67.775-77.468-6.661-12.93-12.805-27.063-18.334-42.247h86.109v119.715zM480 576h-104.292c-8.339-39.052-13.041-82.274-13.041-128 0-37.551 3.171-73.417 8.924-106.667h108.409v234.667zM544 341.333h108.407c5.756 33.25 8.926 69.116 8.926 106.667 0 45.726-4.702 88.948-13.043 128h-104.29v-234.667zM480 277.333h-93.254c7.198-23.424 15.792-44.774 25.48-63.582 20.952-40.67 44.701-65.621 67.775-77.466v141.047zM367.784 162.261c-4.387 7.177-8.541 14.588-12.453 22.182-14.159 27.482-26.018 58.786-35.168 92.89h-78.901c30.885-48.892 74.647-88.836 126.523-115.072zM210.208 341.333h96.53c-5.276 33.975-8.072 69.79-8.072 106.667 0 44.689 4.106 87.817 11.755 128h-91.804c-17.118-39.175-26.618-82.449-26.618-128 0-37.402 6.417-73.306 18.208-106.667zM656.218 162.261c51.874 26.236 95.637 66.18 126.519 115.072h-78.899c-9.152-34.103-21.009-65.408-35.17-92.89-3.913-7.595-8.064-15.006-12.45-22.182zM637.257 277.333h-93.257v-141.047c23.074 11.844 46.822 36.796 67.776 77.466 9.685 18.807 18.278 40.158 25.481 63.582zM717.261 341.333h96.529c11.793 33.361 18.21 69.265 18.21 106.667 0 45.551-9.498 88.825-26.62 128h-91.802c7.65-40.183 11.755-83.311 11.755-128 0-36.877-2.795-72.691-8.073-106.667zM697.647 640h70.379c-29.461 39.226-67.712 71.445-111.817 93.746 4.39-7.177 8.546-14.592 12.459-22.19 11.153-21.649 20.881-45.666 28.979-71.556zM544 759.715v-119.715h86.11c-5.53 15.183-11.674 29.317-18.334 42.247-20.954 40.67-44.702 65.623-67.776 77.468z" />
<glyph unicode="&#xe931;" glyph-name="google" d="M675.652 641.833c-44.049 42.015-102.839 64.903-163.669 63.963-111.305 0-205.837-75.093-239.543-176.209v-0.004c-17.872-52.988-17.872-110.366 0-163.354h0.156c33.863-100.962 128.239-176.055 239.545-176.055 57.459 0 106.786 14.699 145.015 40.657v0.102c44.992 29.79 75.721 76.663 85.282 129.651h-230.451v164.297h402.428c5.018-28.531 7.369-57.694 7.369-86.694 0-129.766-46.374-239.479-127.070-313.788l0.085-0.068c-70.703-65.216-167.744-102.997-282.816-102.997-161.315 0-308.837 90.927-381.265 234.999v0c-60.513 120.559-60.513 262.592 0 383.148v0.001c72.428 144.229 219.95 235.156 381.265 235.156 105.98 1.254 208.35-38.566 285.483-110.994l-121.813-121.811z" />
<glyph unicode="&#xe932;" glyph-name="hamburger-menu-2" d="M242.851 526.763c43.502 0 78.767-35.264 78.767-78.767s-35.265-78.767-78.767-78.767c-43.502 0-78.768 35.264-78.768 78.767s35.266 78.767 78.768 78.767zM505.237 526.763c43.503 0 78.767-35.264 78.767-78.767s-35.264-78.767-78.767-78.767c-43.499 0-78.766 35.264-78.766 78.767s35.267 78.767 78.766 78.767zM846.75 447.996c0 43.503-35.264 78.767-78.767 78.767s-78.767-35.264-78.767-78.767c0-43.503 35.264-78.767 78.767-78.767s78.767 35.264 78.767 78.767z" />
<glyph unicode="&#xe933;" glyph-name="hamburger-menu" d="M584.201 710.566c0-43.502-35.264-78.768-78.767-78.768s-78.767 35.266-78.767 78.768c0 43.502 35.264 78.767 78.767 78.767s78.767-35.265 78.767-78.767zM584.201 448.179c0-43.503-35.264-78.767-78.767-78.767s-78.767 35.264-78.767 78.767c0 43.503 35.264 78.767 78.767 78.767s78.767-35.264 78.767-78.767zM505.434 106.667c43.503 0 78.767 35.264 78.767 78.767s-35.264 78.767-78.767 78.767c-43.503 0-78.767-35.264-78.767-78.767s35.264-78.767 78.767-78.767z" />
<glyph unicode="&#xe934;" glyph-name="hamburger" d="M170.667 717.169c0 16.291 11.886 29.498 26.548 29.498h629.571c14.66 0 26.547-13.207 26.547-29.498s-11.887-29.497-26.547-29.497h-629.571c-14.662 0-26.548 13.206-26.548 29.497zM170.667 448.009c0 16.294 11.886 29.5 26.548 29.5h629.571c14.66 0 26.547-13.205 26.547-29.5 0-16.29-11.887-29.495-26.547-29.495h-629.571c-14.662 0-26.548 13.205-26.548 29.495zM197.215 208.329c-14.662 0-26.548-13.205-26.548-29.5 0-16.29 11.886-29.495 26.548-29.495h629.571c14.66 0 26.547 13.205 26.547 29.495 0 16.294-11.887 29.5-26.547 29.5h-629.571z" />
<glyph unicode="&#xe935;" glyph-name="heart-filled" d="M914.594 407.957l-395.042-386.654-395.073 386.654c-25.939 25.391-46.514 55.531-60.552 88.7s-21.262 68.723-21.26 104.626c0.001 35.903 7.228 71.454 21.268 104.624s34.617 63.308 60.558 88.695c25.941 25.386 56.736 45.524 90.629 59.262s70.218 20.809 106.903 20.808c36.684-0.001 73.009-7.074 106.899-20.815 33.894-13.741 64.687-33.88 90.628-59.268 25.894 25.569 56.7 45.88 90.641 59.767 33.937 13.887 70.345 21.076 107.132 21.155s73.229-6.954 107.23-20.695c34.001-13.741 64.896-33.92 90.906-59.378 26.014-25.458 46.63-55.694 60.672-88.971s21.227-68.941 21.146-104.944c-0.081-36.003-7.428-71.636-21.615-104.852-14.191-33.216-34.944-63.364-61.069-88.713v0z" />
<glyph unicode="&#xe936;" glyph-name="home" d="M529.732 826.056c-11.102 7.926-26.014 7.926-37.12 0l-447.998-319.999c-6.613-5.035-11.007-12.446-12.253-20.663s0.754-16.597 5.577-23.369c4.823-6.767 12.090-11.392 20.264-12.898s16.613 0.226 23.531 4.834l410.844 293.405c11.123 7.945 26.069 7.945 37.193 0l410.846-293.405c6.916-4.608 15.356-6.34 23.531-4.834 8.171 1.506 15.441 6.131 20.262 12.898 4.821 6.771 6.822 15.151 5.577 23.369s-5.641 15.629-12.25 20.663l-448.004 319.999zM191.174 448.009c17.673 0 32-14.327 32-32v-320h160v128c0 21.12 6.080 52.096 25.216 78.72 20.35 28.16 53.95 49.28 102.782 49.28s82.436-21.12 102.788-49.28c19.2-26.624 25.216-57.6 25.216-78.72v-128h159.996v320c0 17.673 14.327 32 32.004 32 17.673 0 32-14.327 32-32v-320c0-16.973-6.746-33.254-18.748-45.257s-28.279-18.743-45.257-18.743h-191.996c-17.677 0-32 14.327-32 32v160c0 10.88-3.52 27.904-13.188 41.28-8.448 11.776-22.848 22.72-50.816 22.72s-42.368-10.944-50.816-22.72c-9.6-13.376-13.184-30.4-13.184-41.28v-160c0-17.673-14.323-32-31.998-32h-192c-16.974 0-33.253 6.741-45.255 18.743s-18.745 28.284-18.745 45.257v320c0 17.673 14.327 32 32 32z" />
<glyph unicode="&#xe937;" glyph-name="info-combined" d="M405.333 508.954c0 33.662 27.29 60.951 60.954 60.951h60.949c33.664 0 60.954-27.289 60.954-60.951v-365.717c33.664 0 60.954-27.29 60.954-60.949 0-33.664-27.29-60.954-60.954-60.954h-60.954c-33.66 0-60.949 27.29-60.949 60.954v365.713c-33.664 0-60.954 27.29-60.954 60.954zM512 691.81c50.496 0 91.43 40.934 91.43 91.428s-40.934 91.429-91.43 91.429c-50.496 0-91.429-40.934-91.429-91.429s40.933-91.428 91.429-91.428z" />
<glyph unicode="&#xe938;" glyph-name="info" d="M512 800c-194.404 0-352-157.596-352-352 0-194.402 157.596-352 352-352 194.402 0 352 157.598 352 352 0 194.404-157.598 352-352 352zM96 448c0 229.751 186.249 416 416 416s416-186.249 416-416c0-229.751-186.249-416-416-416s-416 186.249-416 416zM448 480c0 17.673 14.327 32 32 32h32c17.673 0 32-14.327 32-32v-192c17.673 0 32-14.327 32-32s-14.327-32-32-32h-32c-17.673 0-32 14.327-32 32v192c-17.673 0-32 14.327-32 32zM504 576c26.509 0 48 21.49 48 48s-21.491 48-48 48c-26.509 0-48-21.49-48-48s21.491-48 48-48z" />
<glyph unicode="&#xe939;" glyph-name="instagram" d="M512.077 762.836c102.618 0 114.769-0.45 155.127-2.25 37.508-1.65 57.762-7.952 71.266-13.203 17.852-6.901 30.754-15.303 44.109-28.656 13.5-13.502 21.751-26.255 28.655-44.108 5.252-13.503 11.55-33.907 13.201-71.264 1.801-40.508 2.253-52.66 2.253-155.129 0-102.622-0.452-114.773-2.253-155.132-1.651-37.508-7.949-57.762-13.201-71.262-6.903-17.856-15.305-30.758-28.655-44.109-13.504-13.504-26.257-21.756-44.109-28.659-13.504-5.248-33.907-11.55-71.266-13.201-40.508-1.801-52.659-2.249-155.127-2.249-102.622 0-114.774 0.448-155.132 2.249-37.507 1.651-57.761 7.953-71.264 13.201-17.853 6.903-30.756 15.305-44.108 28.659-13.503 13.5-21.754 26.253-28.656 44.109-5.251 13.5-11.552 33.903-13.202 71.262-1.801 40.508-2.251 52.659-2.251 155.132 0 102.619 0.45 114.771 2.251 155.129 1.65 37.507 7.951 57.761 13.202 71.264 6.901 17.853 15.303 30.756 28.656 44.108 13.503 13.503 26.255 21.754 44.108 28.656 13.503 5.251 33.907 11.552 71.264 13.203 40.358 1.8 52.51 2.25 155.132 2.25zM512.077 832c-104.272 0-117.325-0.45-158.283-2.25-40.808-1.801-68.864-8.402-93.168-17.854-25.355-9.902-46.809-22.954-68.113-44.408-21.454-21.304-34.507-42.758-44.408-67.963-9.452-24.455-16.053-52.361-17.854-93.168-1.8-41.108-2.25-54.161-2.25-158.433 0-104.269 0.45-117.321 2.25-158.281 1.801-40.806 8.402-68.864 17.854-93.167 9.902-25.357 22.954-46.81 44.408-68.113 21.304-21.303 42.758-34.509 67.963-44.258 24.455-9.451 52.361-16.055 93.168-17.856 40.958-1.801 54.011-2.249 158.279-2.249 104.273 0 117.325 0.448 158.285 2.249 40.806 1.801 68.86 8.405 93.167 17.856 25.203 9.749 46.66 22.955 67.964 44.258s34.505 42.756 44.258 67.964c9.451 24.452 16.051 52.361 17.852 93.167 1.801 40.96 2.253 54.012 2.253 158.281 0 104.271-0.452 117.324-2.253 158.282-1.801 40.808-8.401 68.864-17.852 93.168-9.451 25.505-22.507 46.959-43.959 68.264-21.303 21.304-42.756 34.507-67.964 44.259-24.452 9.452-52.361 16.053-93.167 17.853-41.109 1.95-54.161 2.4-158.43 2.4zM512.038 645.208c-108.921 0-197.289-88.367-197.289-197.289 0-108.919 88.367-197.286 197.289-197.286 108.919 0 197.291 88.367 197.291 197.286 0 108.922-88.371 197.289-197.291 197.289zM512.038 319.945c-70.665 0-127.975 57.31-127.975 127.974s57.31 127.976 127.975 127.976c70.665 0 127.974-57.311 127.974-127.976s-57.31-127.974-127.974-127.974zM763.2 653.014c0-25.505-20.702-46.059-46.059-46.059-25.502 0-46.059 20.704-46.059 46.059 0 25.505 20.706 46.059 46.059 46.059 25.357 0 46.059-20.704 46.059-46.059z" />
<glyph unicode="&#xe93a;" glyph-name="left" d="M652.48 694.095c12.203-12.784 11.733-33.040-1.050-45.243l-210.419-200.852 210.419-200.853c12.783-12.203 13.252-32.457 1.050-45.244-12.203-12.783-32.457-13.252-45.244-1.050l-234.665 224c-6.326 6.037-9.905 14.4-9.905 23.147s3.579 17.109 9.905 23.147l234.665 224.001c12.787 12.203 33.041 11.732 45.244-1.052z" />
<glyph unicode="&#xe93b;" glyph-name="linkedin" d="M839.151 832h-654.451c-31.35 0-56.7-24.75-56.7-55.35v-657.149c0-30.601 25.35-55.501 56.7-55.501h654.451c31.347 0 56.849 24.9 56.849 55.351v657.298c0 30.6-25.502 55.35-56.849 55.35zM355.85 177.549h-114v366.601h114v-366.601zM298.85 594.1c-36.6 0-66.15 29.55-66.15 66s29.55 66 66.15 66c36.45 0 66-29.55 66-66 0-36.3-29.55-66-66-66zM782.451 177.549h-113.852v178.202c0 42.449-0.751 97.199-59.251 97.199-59.247 0-68.25-46.349-68.25-94.199v-181.201h-113.698v366.601h109.201v-50.1h1.498c15.151 28.8 52.352 59.25 107.699 59.25 115.354 0 136.653-75.898 136.653-174.599v-201.152z" />
<glyph unicode="&#xe93c;" glyph-name="list-of-cards" d="M746.667 755.198c23.565 0 42.667-19.102 42.667-42.667s-19.102-42.667-42.667-42.667h-469.333c-23.564 0-42.667 19.103-42.667 42.667s19.103 42.667 42.667 42.667h469.333zM277.333 819.198c-58.91 0-106.667-47.756-106.667-106.667s47.756-106.667 106.667-106.667h469.333c58.91 0 106.667 47.756 106.667 106.667s-47.757 106.667-106.667 106.667h-469.333zM746.667 477.867c23.565 0 42.667-19.106 42.667-42.667 0-23.565-19.102-42.667-42.667-42.667h-469.333c-23.564 0-42.667 19.102-42.667 42.667 0 23.561 19.103 42.667 42.667 42.667h469.333zM277.333 541.865c-58.91 0-106.667-47.755-106.667-106.665 0-58.914 47.756-106.667 106.667-106.667h469.333c58.91 0 106.667 47.753 106.667 106.667 0 58.91-47.757 106.665-106.667 106.665h-469.333zM277.333 200.533c-23.564 0-42.667-19.106-42.667-42.667 0-23.565 19.103-42.667 42.667-42.667h469.333c23.565 0 42.667 19.102 42.667 42.667 0 23.561-19.102 42.667-42.667 42.667h-469.333zM170.667 157.867c0 58.91 47.756 106.667 106.667 106.667h469.333c58.91 0 106.667-47.757 106.667-106.667 0-58.914-47.757-106.667-106.667-106.667h-469.333c-58.91 0-106.667 47.753-106.667 106.667z" />
<glyph unicode="&#xe93d;" glyph-name="log-out" d="M661.333 320c0 17.673 14.327 32 32 32s32-14.327 32-32v-224c0-17.673-14.327-32-32-32h-448c-17.673 0-32 14.327-32 32v704c0 17.673 14.327 32 32 32h448c17.673 0 32-14.327 32-32v-224.001c0-17.673-14.327-32-32-32s-32 14.327-32 32v192h-384v-640h384v192zM974.647 428.476c-0.183-0.256-0.367-0.508-0.567-0.755-0.661-0.802-1.357-1.574-2.091-2.313l-0.030-0.034-128-128c-12.497-12.497-32.759-12.497-45.257 0-12.493 12.497-12.493 32.759 0 45.257l73.374 73.37h-274.743c-17.673 0-32 14.327-32 32s14.327 32 32 32h274.743l-73.374 73.373c-12.493 12.497-12.493 32.759 0 45.255 12.497 12.497 32.759 12.497 45.257 0l128.030-128.035c0.734-0.734 1.429-1.506 2.091-2.308 0.201-0.243 0.384-0.499 0.567-0.751 0.094-0.132 0.188-0.265 0.286-0.397 0.341-0.452 0.691-0.896 1.007-1.37 0.23-0.337 0.435-0.687 0.64-1.037 0.068-0.119 0.141-0.239 0.209-0.358 0.077-0.128 0.154-0.252 0.226-0.375 0.183-0.299 0.367-0.602 0.533-0.913 0.192-0.358 0.363-0.725 0.533-1.092 0.055-0.119 0.111-0.243 0.171-0.363 0.218-0.457 0.448-0.909 0.64-1.382 0.196-0.469 0.354-0.956 0.525-1.434 0.043-0.119 0.090-0.243 0.132-0.363 0.141-0.384 0.282-0.764 0.401-1.156 0.107-0.35 0.188-0.704 0.277-1.058 0.030-0.132 0.060-0.265 0.094-0.397 0.137-0.525 0.282-1.045 0.388-1.583 0.111-0.559 0.179-1.131 0.26-1.694 0.021-0.158 0.047-0.316 0.073-0.474 0.051-0.307 0.098-0.614 0.128-0.926 0.209-2.099 0.209-4.215 0-6.319-0.030-0.303-0.077-0.602-0.124-0.9-0.026-0.166-0.055-0.333-0.077-0.499-0.085-0.563-0.149-1.131-0.26-1.694-0.081-0.401-0.183-0.789-0.286-1.182-0.034-0.132-0.068-0.265-0.102-0.401-0.119-0.482-0.226-0.973-0.371-1.451-0.119-0.388-0.256-0.764-0.393-1.143-0.047-0.124-0.094-0.252-0.141-0.38-0.043-0.115-0.081-0.235-0.124-0.354-0.128-0.363-0.252-0.721-0.401-1.079-0.145-0.35-0.307-0.691-0.474-1.033-0.055-0.115-0.111-0.23-0.166-0.35-0.055-0.115-0.111-0.235-0.166-0.35-0.171-0.371-0.341-0.742-0.538-1.105-0.166-0.311-0.35-0.61-0.533-0.913-0.073-0.124-0.149-0.247-0.226-0.371-0.073-0.124-0.141-0.247-0.213-0.367-0.205-0.35-0.41-0.695-0.636-1.033-0.235-0.35-0.486-0.687-0.742-1.024-0.090-0.115-0.175-0.23-0.265-0.346-0.094-0.132-0.192-0.265-0.286-0.393z" />
<glyph unicode="&#xe93e;" glyph-name="mail" d="M194.881 725.333l317.119-277.478 317.12 277.478h-634.239zM874.667 680.148c-0.085-0.077-0.175-0.154-0.26-0.231l-247.326-216.408 247.586-247.586v464.225zM829.41 170.667l-250.603 250.603-45.734-40.017c-12.066-10.56-30.080-10.56-42.146 0l-45.734 40.017-250.604-250.603h634.822zM149.333 215.923l247.587 247.586-247.325 216.408c-0.087 0.076-0.175 0.154-0.261 0.231v-464.225zM85.333 695.467c0 48.98 36.838 93.867 88.381 93.867h676.573c51.541 0 88.38-44.887 88.38-93.867v-494.933c0-48.981-36.838-93.867-88.38-93.867h-676.573c-51.543 0-88.381 44.885-88.381 93.867v494.933z" />
<glyph unicode="&#xe93f;" glyph-name="metronome-2" d="M256 256c106.667 0 192 85.333 192 192s-85.333 192-192 192c-106.667 0-192-85.333-192-192s85.333-192 192-192zM960 448c0-106.667-85.333-192-192-192s-192 85.333-192 192c0 106.667 85.333 192 192 192s192-85.333 192-192zM644.267 448c0-68.267 55.467-123.733 123.733-123.733s123.733 55.467 123.733 123.733c0 68.267-55.467 123.733-123.733 123.733s-123.733-55.467-123.733-123.733z" />
<glyph unicode="&#xe940;" glyph-name="metronome" d="M903.791 564.307c-11.516 12.091-30.656 12.556-42.748 1.045l-14.831-14.122c-3.17 1.203-6.532 1.91-9.988 1.996-8.030 0.2-15.782-2.801-21.589-8.331l-24.892-23.705c-8.704-8.29-11.349-20.523-7.876-31.236l-34.974-33.306-52.053 351.035c-1.382 9.326-7.036 17.474-15.292 22.033l-151.838 83.849c-9.092 5.023-20.134 5.023-29.231 0l-151.837-83.851c-8.256-4.56-13.908-12.707-15.293-22.033l-117.687-793.691c-1.291-8.7 1.272-17.856 7.014-24.512 5.742-6.66 14.1-10.812 22.893-10.812h539.054c8.794 0 17.152 4.151 22.895 10.812 5.743 6.656 8.303 15.646 7.014 24.35l-54.788 369.566 65.83 62.729c3.447-1.31 7.087-1.98 10.735-1.98 7.488 0 14.993 2.778 20.847 8.35l24.892 23.71c5.811 5.53 9.182 13.146 9.378 21.158 0.081 3.452-0.461 6.852-1.506 10.074l14.831 14.123c12.087 11.52 12.557 30.656 1.041 42.749zM704.175 332.463l13.308-89.741h-107.537l94.229 89.741zM513.097 852.558l85.931-47.454h-171.861l85.931 47.454zM383.132 744.633h259.923l50.398-339.001-90.411-86.225v277.749c0 16.698-13.798 30.566-30.494 30.566h-118.908c-16.7 0-29.995-13.868-29.995-30.566v-354.434h-114.937l74.424 501.911zM542.575 567.253v-324.527h-58.458v324.527h58.458zM278.618 39.138l21.126 143.113h426.704l21.124-143.113h-468.954z" />
<glyph unicode="&#xe941;" glyph-name="mic-off" d="M661.547 725.333v-18.532l-64-64v82.532c0 47.128-38.204 85.333-85.333 85.333s-85.333-38.205-85.333-85.333v-253.201l-54.726-54.724c-5.998 16.175-9.275 33.668-9.275 51.925v256c0 82.475 66.859 149.333 149.334 149.333s149.333-66.859 149.333-149.333zM494.993 385.737c5.564-1.139 11.319-1.737 17.22-1.737 47.13 0 85.333 38.204 85.333 85.333v18.957l-102.554-102.554zM661.547 552.291v-82.958c0-82.475-66.859-149.333-149.333-149.333-24.124 0-46.912 5.722-67.081 15.876l-62.207-62.204c37.072-24.521 81.514-38.797 129.288-38.797 129.604 0 234.667 105.062 234.667 234.667v42.667c0 17.673 14.327 31.999 32 31.999s32-14.327 32-31.999v-42.667c0-154.138-116.766-281.007-266.667-296.973v-87.236h149.333c17.673 0 32-14.327 32-32s-14.327-32-32-32h-362.667c-17.673 0-32 14.327-32 32s14.327 32 32 32h149.334v87.236c-53.171 5.662-102.172 25.28-143.273 55.117l-154.313-154.313c-12.497-12.497-32.758-12.497-45.255 0s-12.497 32.755 0 45.252l704.001 704.001c12.497 12.497 32.755 12.497 45.252 0s12.497-32.758 0-45.255l-225.079-225.081zM308.215 353.472l-46.554-46.554c-30.435 46.793-48.116 102.643-48.116 162.624v42.667c0 17.673 14.327 31.999 32 31.999s32-14.327 32-31.999v-42.667c0-42.223 11.151-81.843 30.669-116.070z" />
<glyph unicode="&#xe942;" glyph-name="mic" d="M362.667 725.333c0 82.475 66.859 149.333 149.333 149.333s149.333-66.859 149.333-149.333v-256c0-82.475-66.859-149.333-149.333-149.333s-149.333 66.859-149.333 149.333v256zM512 810.667c-47.13 0-85.333-38.205-85.333-85.333v-256c0-47.13 38.204-85.333 85.333-85.333s85.333 38.204 85.333 85.333v256c0 47.128-38.204 85.333-85.333 85.333zM245.333 544.208c17.673 0 32-14.327 32-31.999v-42.667c0-129.604 105.064-234.667 234.667-234.667s234.667 105.062 234.667 234.667v42.667c0 17.673 14.327 31.999 32 31.999s32-14.327 32-31.999v-42.667c0-154.138-116.766-281.007-266.667-296.973v-87.236h149.333c17.673 0 32-14.327 32-32s-14.327-32-32-32h-362.667c-17.673 0-32 14.327-32 32s14.327 32 32 32h149.333v87.236c-149.902 15.966-266.667 142.835-266.667 296.973v42.667c0 17.673 14.327 31.999 32 31.999z" />
<glyph unicode="&#xe943;" glyph-name="minus" d="M480 480h256c17.673 0 32-14.327 32-32s-14.327-32-32-32h-456c-13.255 0-24 14.327-24 32s10.745 32 24 32h200z" />
<glyph unicode="&#xe944;" glyph-name="moneyback" d="M220.463 780.8h583.006c22.729 0 41.83 0.001 57.459-1.276 16.337-1.335 31.868-4.234 46.609-11.745 22.477-11.453 40.755-29.73 52.207-52.209 7.514-14.741 10.411-30.27 11.746-46.61 1.276-15.628 1.276-34.726 1.276-57.452v-163.507c0-18.85-15.283-34.133-34.133-34.133s-34.133 15.283-34.133 34.133v51.2h-785.066v-213.333c0-24.461 0.026-40.751 1.049-53.269 0.99-12.117 2.741-17.664 4.531-21.175 4.909-9.634 12.742-17.468 22.375-22.374 3.513-1.792 9.059-3.541 21.177-4.531 12.517-1.024 28.809-1.050 53.267-1.050h290.132c18.85 0 34.133-15.283 34.133-34.133s-15.283-34.133-34.133-34.133h-291.503c-22.729 0-41.827 0-57.456 1.276-16.34 1.335-31.87 4.233-46.61 11.746-22.479 11.452-40.755 29.73-52.209 52.207-7.511 14.741-10.41 30.272-11.745 46.609-1.277 15.629-1.276 34.731-1.276 57.459v327.006c0 22.729-0.001 41.827 1.276 57.456 1.335 16.34 4.235 31.869 11.745 46.61 11.454 22.479 29.73 40.755 52.209 52.209 14.74 7.511 30.27 10.41 46.61 11.745 15.629 1.277 34.727 1.277 57.456 1.276zM119.433 567.466h785.066v42.667c0 24.459-0.026 40.75-1.050 53.267-0.99 12.119-2.739 17.664-4.531 21.177-4.907 9.634-12.74 17.466-22.374 22.375-3.511 1.79-9.058 3.541-21.175 4.532-12.518 1.022-28.809 1.049-53.269 1.049h-580.266c-24.459 0-40.75-0.027-53.267-1.049-12.119-0.99-17.664-2.741-21.177-4.532-9.634-4.908-17.466-12.741-22.375-22.375-1.79-3.513-3.541-9.059-4.531-21.177-1.023-12.517-1.049-28.809-1.049-53.267v-42.667zM810.633 354.133c18.85 0 34.133-15.283 34.133-34.133v-173.594l69.73 69.73c13.333 13.329 34.944 13.329 48.273 0s13.329-34.944 0-48.273l-128-128c-13.329-13.329-34.94-13.329-48.273 0l-128 128c-13.329 13.329-13.329 34.944 0 48.273 13.333 13.329 34.944 13.329 48.273 0l69.73-69.73v173.594c0 18.85 15.283 34.133 34.133 34.133z" />
<glyph unicode="&#xe945;" glyph-name="music" d="M794.112 808.849c35.802-20.806 48.555-62.611 48.555-114.918v-422.516c0-58.91-47.757-106.667-106.667-106.667s-106.667 47.757-106.667 106.667v106.667c0 58.91 47.757 106.667 106.667 106.667 15.17 0 29.601-3.167 42.667-8.876v143.028l-384.001-109.715v-258.643c0.001-0.153 0.001-0.307 0.001-0.461v-106.667c0-58.91-47.756-106.667-106.667-106.667s-106.667 47.757-106.667 106.667v106.667c0 58.91 47.756 106.667 106.667 106.667 15.17 0 29.6-3.167 42.666-8.875v275.517c0 66.068 44.175 111.029 102.37 125.688l254.127 64.111c33.634 8.493 74.288 14.64 106.949-4.341zM394.666 575.748l384.001 109.714v8.469c0 45.747-11.482 56.544-16.713 59.584-8.367 4.863-25.553 6.1-59.119-2.377l-254.144-64.115c-34.659-8.727-54.025-31.651-54.025-63.632v-47.643zM736 420.749c-23.565 0-42.667-19.102-42.667-42.667v-106.667c0-23.565 19.102-42.667 42.667-42.667s42.667 19.102 42.667 42.667v106.667c0 23.565-19.102 42.667-42.667 42.667zM330.666 149.337v101.037c-0.157 23.43-19.199 42.375-42.666 42.375-23.564 0-42.667-19.102-42.667-42.667v-106.667c0-23.565 19.103-42.667 42.667-42.667s42.667 19.102 42.667 42.667v5.669c-0.001 0.084-0.001 0.169-0.001 0.253z" />
<glyph unicode="&#xe946;" glyph-name="next-track" d="M960 832h-128v-768h128v768zM128 64l576 352-576 352v-704z" />
<glyph unicode="&#xe947;" glyph-name="notifications" d="M238.333 545.917c0 151.142 122.525 273.667 273.667 273.667s273.668-122.525 273.668-273.667v-199.421l64.811-143.040c4.489-9.903 3.639-21.406-2.253-30.545s-16.021-14.66-26.893-14.66h-183.104c-10.155-60.54-62.805-106.667-126.229-106.667s-116.074 46.127-126.23 106.667h-183.103c-10.873 0-21.003 5.521-26.895 14.66s-6.74 20.642-2.253 30.545l64.814 143.040v199.421zM451.644 158.251c8.785-24.858 32.491-42.667 60.356-42.667s51.571 17.809 60.356 42.667h-120.713zM512 755.583c-115.796 0-209.667-93.871-209.667-209.667v-206.333c0-4.557-0.973-9.058-2.853-13.21l-47.182-104.124h519.405l-47.185 104.124c-1.877 4.151-2.85 8.653-2.85 13.21v206.333c0 115.796-93.871 209.667-209.668 209.667z" />
<glyph unicode="&#xe948;" glyph-name="open-in-new-window" d="M469.333 819.583h-224c-64.801 0-117.333-52.532-117.333-117.333v-533.332c0-64.802 52.532-117.333 117.333-117.333h533.333c64.802 0 117.333 52.531 117.333 117.333v236.42h-64v-236.42c0-29.457-23.876-53.333-53.333-53.333h-533.333c-29.455 0-53.333 23.876-53.333 53.333v533.332c0 29.455 23.878 53.333 53.333 53.333h224v64zM534.818 472.098c-12.497 12.497-12.497 32.759 0 45.257l319.364 319.364-185.135-7.158c-17.66-0.683-32.529 13.080-33.212 30.74s13.077 32.529 30.737 33.212l266.761 10.313c8.909 0.344 17.557-3.044 23.863-9.349 6.302-6.305 9.694-14.954 9.348-23.864l-10.313-266.757c-0.683-17.66-15.552-31.423-33.212-30.74-17.664 0.683-31.424 15.552-30.741 33.212l7.155 185.135-319.364-319.366c-12.497-12.497-32.755-12.497-45.252 0z" />
<glyph unicode="&#xe949;" glyph-name="pause-2" d="M853.333 789.333h-227.554v-682.667h227.554v682.667zM398.222 789.333h-227.555v-682.667h227.555v682.667z" />
<glyph unicode="&#xe94a;" glyph-name="pencil" d="M663.164 792.051c53.265 53.265 139.622 53.265 192.887 0s53.265-139.624 0-192.889l-472.512-472.515c-3.992-3.989-8.969-6.857-14.425-8.303l-200.911-53.274c-11.044-2.931-22.811 0.252-30.874 8.346s-11.198 19.874-8.226 30.908l54.442 202.078c1.457 5.41 4.309 10.342 8.271 14.302l471.348 471.347zM810.799 746.796c-28.271 28.271-74.108 28.271-102.383 0l-42.795-42.796 102.379-102.38 42.799 42.796c28.271 28.271 28.271 74.108 0 102.38zM722.748 556.366l-102.383 102.38-377.248-377.248-37.82-140.382 139.081 36.881 378.369 378.369z" />
<glyph unicode="&#xe94b;" glyph-name="person" d="M505.869 496.764c80.794 0 146.287 65.492 146.287 146.284s-65.493 146.286-146.287 146.286c-80.791 0-146.286-65.494-146.286-146.286s65.495-146.284 146.286-146.284zM505.903 106.667h292.574c0 134.652-130.991 243.81-292.574 243.81-161.581 0-292.57-109.158-292.57-243.81h292.57z" />
<glyph unicode="&#xe94c;" glyph-name="play" d="M238.417 785.046c9.901 5.716 22.099 5.716 32 0l558.648-309.334c9.899-5.717 16-16.282 16-27.712s-6.101-21.995-16-27.712l-558.648-309.333c-9.901-5.717-22.099-5.717-32 0s-16 16.282-16 27.712v618.667c0 11.433 6.099 21.996 16 27.713zM286.417 701.908v-507.817l462.648 253.909-462.648 253.908z" />
<glyph unicode="&#xe94d;" glyph-name="play2" d="M938.667 448l-682.667-384v768l682.667-384z" />
<glyph unicode="&#xe94e;" glyph-name="plus" d="M512 704c17.673 0 32-14.327 32-32v-192h192c17.673 0 32-14.327 32-32s-14.327-32-32-32h-192v-192c0-17.673-14.327-32-32-32s-32 14.327-32 32v192h-192c-17.673 0-32 14.327-32 32s14.327 32 32 32h192v192c0 17.673 14.327 32 32 32z" />
<glyph unicode="&#xe94f;" glyph-name="prev-track" d="M96 832h128v-768h-128v768zM928 64l-576 352 576 352v-704z" />
<glyph unicode="&#xe950;" glyph-name="profile" d="M640.896 639.052c0 71.216-57.732 128.948-128.947 128.948s-128.949-57.732-128.949-128.948c0-71.216 57.734-128.946 128.949-128.946s128.947 57.73 128.947 128.946zM704.896 639.052c0-106.563-86.387-192.946-192.947-192.946-106.563 0-192.949 86.383-192.949 192.946s86.386 192.948 192.949 192.948c106.56 0 192.947-86.386 192.947-192.948zM245.75 42.667c0 147.012 119.178 266.193 266.194 266.193 147.012 0 266.189-119.181 266.189-266.193 0-17.673 14.327-32 32-32 17.677 0 32 14.327 32 32 0 182.362-147.831 330.193-330.189 330.193-182.362 0-330.194-147.831-330.194-330.193 0-17.673 14.327-32 32-32s32 14.327 32 32z" />
<glyph unicode="&#xe951;" glyph-name="questionmark" d="M149.333 458.667c0 194.404 157.596 352 352 352 194.402 0 352-157.596 352-352 0-194.402-157.598-352-352-352-194.404 0-352 157.598-352 352zM501.333 874.667c-229.751 0-416-186.249-416-416s186.249-416 416-416c229.751 0 416 186.249 416 416s-186.249 416-416 416zM554.667 250.667c0-26.509-21.491-48-48-48s-48 21.491-48 48c0 26.509 21.491 48 48 48s48-21.491 48-48zM405.29 673.556c24.009 24.511 59.179 43.243 102.746 43.243 77.478 0 145.813-49.161 145.813-118.345 0-26.346-5.047-49.448-20.087-71.159-13.781-19.904-34.325-36.062-58.688-52.894-22.468-15.522-29.534-24.7-31.808-28.796-0.875-1.579-1.165-2.53-1.348-3.703-0.252-1.626-0.324-3.793-0.324-8.32v-41.050h-67.119v41.801c-0.004 9.775-0.013 26.27 10.381 44.996 9.779 17.617 26.816 33.946 52.57 51.742 23.872 16.492 35.337 26.789 41.51 35.709 4.937 7.127 7.795 15.232 7.795 31.673 0 16.758-22.101 49.898-78.694 49.898-23.697 0-42.308-9.948-55.258-23.169-13.888-14.178-18.743-29.334-18.743-36.217v-12.8h-67.119v12.8c0 29.402 15.315 61.049 38.374 84.59z" />
<glyph unicode="&#xe952;" glyph-name="radio" d="M487.718 886.382l287.061-179.413c1.438-0.898 2.778-1.891 4.019-2.965h10.534c70.694 0 128-57.307 128-128v-298.665c0-70.694-57.306-128-128-128h-554.667c-70.692 0-128 57.306-128 128v298.665c0 70.693 57.308 128 128 128h424.102l-204.971 128.107c-14.985 9.367-19.541 29.109-10.176 44.096 9.37 14.987 29.111 19.543 44.096 10.176zM789.333 640.003h-554.667c-35.346 0-64-28.654-64-64v-298.665c0-35.349 28.654-64 64-64h554.667c35.345 0 64 28.651 64 64v298.665c0 35.346-28.655 64-64 64zM292.25 576.003h106.667c17.673 0 32-14.327 32-32 0-17.671-14.327-31.999-32-31.999h-106.667c-17.673 0-32 14.327-32 31.999s14.327 32 32 32zM292.25 456.538h106.667c17.673 0 32-14.327 32-32s-14.327-32-32-32h-106.667c-17.673 0-32 14.327-32 32s14.327 32 32 32zM260.25 305.071c0-17.673 14.327-32 32-32h106.667c17.673 0 32 14.327 32 32s-14.327 32-32 32h-106.667c-17.673 0-32-14.327-32-32zM708.25 430.933c0 35.349-28.655 64-64 64s-64-28.651-64-64c0-35.345 28.655-64 64-64s64 28.655 64 64zM772.25 430.933c0-70.69-57.306-128-128-128-70.69 0-128 57.31-128 128 0 70.694 57.31 128.002 128 128.002 70.694 0 128-57.308 128-128.002z" />
<glyph unicode="&#xe953;" glyph-name="repeat" d="M573.884 821.733c12.028 12.951 32.273 13.701 45.222 1.675l149.333-138.667c6.524-6.055 10.227-14.551 10.227-23.449s-3.703-17.395-10.227-23.45l-149.333-138.668c-12.949-12.023-33.195-11.277-45.222 1.677-12.023 12.949-11.277 33.197 1.677 45.223l89.617 83.217h-281.178c-107.528 0-192-82.639-192-181.334 0-38.187 12.472-73.647 33.967-102.997 10.443-14.255 7.349-34.278-6.909-44.723-14.258-10.441-34.282-7.351-44.724 6.908-29.122 39.765-46.333 88.35-46.333 140.813 0 136.948 116.104 245.334 256 245.334h281.178l-89.617 83.217c-12.954 12.026-13.7 32.273-1.677 45.224zM804.941 595.68c14.259 10.442 34.283 7.349 44.727-6.909 29.12-39.762 46.332-88.351 46.332-140.814 0-136.947-116.105-245.333-256-245.333h-281.095l89.534-83.14c12.954-12.023 13.7-32.273 1.677-45.222-12.028-12.954-32.273-13.7-45.224-1.677l-149.333 138.667c-6.52 6.054-10.225 14.554-10.225 23.45 0 8.9 3.705 17.395 10.225 23.45l149.333 138.667c12.951 12.028 33.196 11.277 45.224-1.673 12.023-12.954 11.277-33.199-1.677-45.227l-89.7-83.294h281.26c107.529 0 192 82.641 192 181.333 0 38.191-12.471 73.651-33.967 102.998-10.441 14.258-7.347 34.282 6.908 44.724z" />
<glyph unicode="&#xe954;" glyph-name="reschedule" d="M85.333 448c0 235.642 191.025 426.667 426.667 426.667 154.453 0 289.681-82.078 364.54-204.852v107.871c0 19.951 16.175 36.125 36.126 36.125s36.126-16.174 36.126-36.125v-182.591c0-19.951-16.175-36.125-36.126-36.125h-182.592c-19.951 0-36.122 16.174-36.122 36.125s16.171 36.125 36.122 36.125h85.376c-62.135 102.677-174.814 171.197-303.45 171.197-195.739 0-354.417-158.678-354.417-354.417s158.678-354.415 354.417-354.415c97.877 0 186.432 39.629 250.611 103.804 14.106 14.11 36.979 14.11 51.089 0 14.106-14.106 14.106-36.979 0-51.089-77.175-77.171-183.889-124.966-301.7-124.966-235.642 0-426.667 191.027-426.667 426.667zM476.958 628.467c19.951 0 36.126-16.174 36.126-36.125v-167.075h118.784c19.955 0 36.126-16.175 36.126-36.126s-16.171-36.126-36.126-36.126h-154.91c-19.951 0-36.126 16.175-36.126 36.126v203.2c0 19.951 16.175 36.125 36.126 36.125z" />
<glyph unicode="&#xe955;" glyph-name="right" d="M371.519 694.095c12.203 12.784 32.459 13.255 45.243 1.052l234.668-224.001c6.323-6.037 9.903-14.4 9.903-23.147s-3.58-17.109-9.903-23.147l-234.668-224c-12.784-12.203-33.040-11.733-45.242 1.050-12.203 12.787-11.732 33.041 1.052 45.244l210.417 200.853-210.417 200.852c-12.784 12.203-13.255 32.459-1.052 45.243z" />
<glyph unicode="&#xe956;" glyph-name="search" d="M430.771 768c-131.871 0-238.771-106.9-238.771-238.771 0-131.866 106.9-238.767 238.771-238.767 69.606 0 134.601 21.154 175.842 62.737 40.956 41.297 62.925 107.46 62.925 176.030 0 131.871-106.901 238.771-238.767 238.771zM128 529.229c0 167.217 135.555 302.771 302.771 302.771 167.215 0 302.767-135.555 302.767-302.771 0-69.419-19.025-141.982-60.565-196.928l213.854-213.662c12.506-12.493 12.514-32.755 0.021-45.257s-32.751-12.51-45.257-0.021l-213.713 213.525c-55.019-42.172-127.164-60.425-197.107-60.425-167.217 0-302.771 135.552-302.771 302.767z" />
<glyph unicode="&#xe957;" glyph-name="send-message-outlined" d="M828.855 847.632c-219.098-126.258-643.126-371.165-656.659-379.195-23.476-14.17-30.243-23.475-31.302-43.14-0.844-16.073 1.903-24.956 10.993-35.742 5.708-6.767 13.111-10.786 141.271-76.561l49.906-25.583 244.689 264.351c134.507 145.499 245.111 264.353 245.534 264.353 0.845 0-16.495-23.476-251.665-342.391-90.295-122.658-163.472-223.539-162.628-224.384 5.708-5.077 245.739-125.197 253.781-126.895 13.111-2.961 25.378-0.841 38.49 6.554 13.956 8.038 22.204 20.727 26.645 40.815 8.883 41.237 130.061 666.387 130.061 671.681 0 7.61-5.922 14.592-13.747 15.857-5.069 1.067-10.355-1.050-25.37-9.719zM313.845 240.457c0-3.383 89.885-171.516 94.956-177.438 11.846-14.383 32.568-20.092 47.16-13.111 7.403 3.601 32.567 29.402 66.615 68.096 8.461 9.728 15.437 18.193 15.437 19.034 0 0.64-49.702 24.107-110.187 52.023-117.58 54.14-113.982 52.659-113.982 51.396z" />
<glyph unicode="&#xe958;" glyph-name="send-message" d="M435.268 420.642l280.811 280.809-468.003-187.212 187.193-93.598zM765.47 652.096l-280.828-280.811 93.598-187.23 187.23 468.041zM147.288 486.541c-26.929 13.474-25.306 52.446 2.653 63.633l698.098 279.239c28.497 11.397 56.772-16.876 45.376-45.376l-279.241-698.097c-11.187-27.959-50.159-29.581-63.629-2.637l-134.385 268.838-268.872 134.4z" />
<glyph unicode="&#xe959;" glyph-name="send-watch" d="M800.636 793.98v70.020h-576.636v-70.020h67.977v-160.096c0-53.727 27.205-103.798 72.279-133.038l83.727-54.31-79.212-51.379c-45.075-29.239-72.279-79.313-72.279-133.039v-160.098h-72.491v-70.020h576.636v70.020h-72.495v160.098c0 53.726-27.204 103.799-72.277 133.039l-79.215 51.379 83.729 54.31c45.073 29.239 72.282 79.311 72.282 133.038v160.096h67.977zM366.511 102.020v160.098c0 30.003 15.192 57.967 40.364 74.295l105.441 68.395 105.442-68.395c25.173-16.329 40.367-44.292 40.367-74.295v-160.098h-291.614zM361.996 793.98h300.643v-160.096c0-30.004-15.194-57.967-40.367-74.294l-109.956-71.322-109.955 71.322c-25.172 16.327-40.364 44.29-40.364 74.294v160.096z" />
<glyph unicode="&#xe95a;" glyph-name="shield-tick" d="M500.992 905.106c7.283 1.053 14.682 1.053 21.965 0 8.354-1.207 16.158-4.149 23.202-6.805 0.597-0.224 1.186-0.447 1.771-0.666l228.77-85.789c1.694-0.636 3.371-1.262 5.022-1.88 26.978-10.086 48.644-18.186 65.242-32.81 14.554-12.827 25.766-29.007 32.666-47.14 7.868-20.673 7.842-43.804 7.817-72.605-0.004-1.767-0.004-3.555-0.004-5.365v-204.050c0-117.423-63.893-215.949-134.118-289.105-70.601-73.549-151.509-125.606-194.368-150.609-0.542-0.32-1.092-0.64-1.647-0.964-7.974-4.676-17.097-10.022-29.231-12.625-9.89-2.121-22.315-2.121-32.205 0-12.139 2.603-21.257 7.949-29.235 12.625-0.555 0.324-1.101 0.644-1.643 0.964-42.86 25.003-123.77 77.060-194.371 150.609-70.222 73.156-134.116 171.682-134.116 289.105v204.050c0 1.81-0.002 3.599-0.003 5.365-0.029 28.801-0.052 51.932 7.814 72.605 6.9 18.133 18.112 34.313 32.668 47.14 16.595 14.624 38.261 22.725 65.238 32.81 1.655 0.619 3.33 1.245 5.025 1.88l228.771 85.789c0.585 0.219 1.173 0.442 1.771 0.666 7.044 2.656 14.848 5.598 23.202 6.805zM510.818 837.551c-0.162-0.038-0.644-0.162-1.63-0.486-1.954-0.64-4.51-1.591-9.199-3.35l-228.771-85.789c-34.557-12.958-43.171-16.764-49.097-21.986-6.238-5.498-11.043-12.432-14.001-20.203-2.809-7.382-3.348-16.785-3.348-53.691v-204.050c0-92.002 50.323-174.349 115.099-241.83 64.396-67.085 139.264-115.435 179.52-138.918 5.107-2.982 7.415-4.305 9.212-5.175 0.892-0.439 1.237-0.55 1.434-0.597 0.055-0.009 0.171-0.021 0.35-0.038 0.414-0.038 0.964-0.068 1.587-0.068s1.173 0.030 1.587 0.068c0.179 0.017 0.294 0.030 0.35 0.038 0.192 0.047 0.538 0.158 1.434 0.597 1.796 0.87 4.105 2.193 9.207 5.175 40.26 23.484 115.127 71.834 179.524 138.918 64.772 67.482 115.098 149.828 115.098 241.83v204.050c0 36.906-0.538 46.309-3.349 53.691-2.957 7.771-7.761 14.705-13.999 20.203-5.926 5.222-14.541 9.028-49.097 21.986l-228.77 85.789c-4.689 1.759-7.245 2.71-9.199 3.35-0.99 0.324-1.472 0.448-1.634 0.486-0.764 0.105-1.54 0.105-2.308 0zM685.444 600.133c13.329-13.33 13.329-34.942 0-48.272l-192-192.002c-13.333-13.329-34.944-13.329-48.273 0l-85.333 85.333c-13.33 13.333-13.33 34.944 0 48.273s34.942 13.329 48.272 0l61.198-61.197 167.863 167.864c13.329 13.33 34.94 13.33 48.273 0z" />
<glyph unicode="&#xe95b;" glyph-name="signal" d="M769.165 678.487c-15.62 15.838-17.335 41.692-1.604 57.422 13.495 13.496 35.17 14.673 48.862 1.375 75.383-73.225 122.219-175.68 122.219-289.074 0-113.591-47.002-216.205-122.615-289.455-13.692-13.269-35.341-12.079-48.823 1.404-15.744 15.744-14.007 41.626 1.647 57.459 58.59 59.238 94.763 140.693 94.763 230.592 0 89.742-36.045 171.064-94.447 230.278zM457.506 448.265c0-30.076 24.38-54.455 54.455-54.455s54.455 24.38 54.455 54.455c0 30.071-24.38 54.455-54.455 54.455s-54.455-24.384-54.455-54.455zM205.259 735.067c13.67 13.491 35.509 12.386 49.089-1.195 15.649-15.649 14.059-41.337-1.358-57.216-57.332-59.052-92.63-139.612-92.63-228.417 0-88.969 35.427-169.66 92.943-228.74 15.451-15.872 17.063-41.587 1.399-57.25-13.566-13.568-35.377-14.686-49.050-1.225-74.269 73.092-120.319 174.775-120.319 287.215 0 112.239 45.888 213.761 119.926 286.828zM624.653 563.226c-17.237 16.887-22.020 45.936-4.958 63 11.849 11.848 30.562 14.023 43.426 3.289 51.883-43.286 84.894-108.426 84.894-181.275 0-73.062-33.207-138.372-85.35-181.653-12.86-10.679-31.522-8.486-43.341 3.332-17.088 17.088-12.254 46.195 5.052 63.061 29.99 29.235 48.61 70.071 48.61 115.26 0 45.047-18.505 85.773-48.333 114.987zM340.681 610.574c12.801 13.506 33.997 12.149 47.156-1.009 15.939-15.94 13.408-42.348-0.812-59.839-22.507-27.686-35.998-62.993-35.998-101.457 0-38.601 13.59-74.031 36.247-101.76 14.284-17.485 16.859-43.947 0.895-59.908-13.13-13.133-34.273-14.507-47.081-1.062-40.331 42.338-65.089 99.644-65.089 162.731 0 62.878 24.591 120.010 64.681 162.305z" />
<glyph unicode="&#xe95c;" glyph-name="soundcloud" d="M68.774 263.219c2.004 0 3.68 1.638 4.007 3.913l11.040 85.039-11.040 87.014c-0.286 2.274-2.045 3.913-4.048 3.913-2.045 0-3.844-1.681-4.089-3.913l-9.65-87.014 9.65-84.996c0.245-2.317 2.045-3.955 4.089-3.955h0.041zM32.455 295.561c1.963 0 3.598 1.515 3.884 3.785l8.546 52.826-8.546 53.833c-0.286 2.231-1.922 3.785-3.884 3.785-2.085 0-3.68-1.553-4.007-3.785l-7.115-53.833 7.115-52.826c0.327-2.227 1.922-3.785 4.007-3.785zM112.1 455.377c-0.082 1.289-0.633 2.496-1.542 3.388-0.909 0.887-2.111 1.391-3.365 1.408-1.253-0.009-2.455-0.512-3.36-1.404s-1.443-2.103-1.506-3.392l-9.159-103.206 9.159-99.422c0.083-1.28 0.637-2.479 1.548-3.354s2.112-1.361 3.359-1.357c1.25 0.009 2.452 0.499 3.362 1.382s1.462 2.086 1.545 3.371l10.386 99.379-10.386 103.206h-0.041zM146.136 244.041c1.455 0.030 2.847 0.61 3.906 1.638s1.707 2.423 1.818 3.913l9.854 102.579-9.813 106.069c-0.112 1.498-0.767 2.897-1.834 3.925s-2.47 1.609-3.931 1.626c-1.47 0-2.884-0.58-3.95-1.621s-1.701-2.462-1.775-3.972l-8.71-106.027 8.669-102.579c0.074-1.515 0.715-2.944 1.789-3.989 1.074-1.041 2.499-1.617 3.976-1.604v0.043zM185.295 242.359c1.688 0 3.314 0.657 4.545 1.847 1.231 1.186 1.975 2.812 2.079 4.548l9.241 103.415-9.241 98.415c-0.114 1.724-0.862 3.341-2.092 4.523-1.23 1.178-2.85 1.83-4.532 1.826-1.68 0.004-3.296-0.657-4.514-1.847s-1.944-2.816-2.028-4.544l-8.178-98.415 8.178-103.373c0.084-1.728 0.81-3.354 2.028-4.544s2.834-1.852 4.514-1.852zM240.906 352.128l-8.669 160.026c-0.114 1.958-0.945 3.797-2.327 5.15-1.381 1.348-3.209 2.112-5.115 2.129-1.909-0.009-3.742-0.768-5.126-2.121s-2.212-3.196-2.316-5.158l-7.687-160.026 7.687-103.377c0.193-1.89 1.060-3.644 2.435-4.915s3.158-1.975 5.007-1.975c1.849 0 3.633 0.704 5.007 1.975s2.242 3.025 2.435 4.915l8.669 103.377zM264.674 241.31c2.118-0.004 4.154 0.836 5.685 2.342 1.531 1.502 2.439 3.558 2.534 5.73v-0.081l8.137 102.788-8.137 196.657c-0.147 2.156-1.084 4.173-2.62 5.647s-3.559 2.292-5.66 2.292c-2.1 0-4.123-0.819-5.66-2.292s-2.473-3.491-2.62-5.647l-7.115-196.657 7.156-102.746c0.116-2.176 1.044-4.224 2.59-5.713s3.593-2.304 5.711-2.278v-0.043zM304.731 574.022c-2.345 0.013-4.605-0.908-6.304-2.57s-2.708-3.936-2.814-6.346l-6.624-213.021 6.624-101.692c0.106-2.406 1.116-4.676 2.816-6.332s3.96-2.569 6.302-2.543c2.345-0.034 4.61 0.875 6.313 2.53 1.703 1.66 2.71 3.934 2.806 6.345l7.564 101.692-7.564 213.021c-0.085 2.417-1.088 4.704-2.792 6.37s-3.975 2.58-6.327 2.546zM345.171 241.31c2.575-0.047 5.065 0.951 6.931 2.778s2.961 4.331 3.046 6.98v-0.085l6.951 101.107-6.951 220.168c-0.085 2.64-1.174 5.141-3.031 6.965s-4.337 2.827-6.905 2.792c-2.575 0.057-5.065-0.939-6.928-2.767s-2.944-4.342-3.008-6.99l-6.256-220.168 6.256-101.107c0.082-5.423 4.498-9.673 9.936-9.673h-0.041zM385.987 241.391c2.785-0.034 5.472 1.058 7.483 3.042 2.011 1.98 3.185 4.693 3.271 7.556v-0.081l6.42 100.134-6.42 214.62c-0.106 2.848-1.29 5.542-3.299 7.505s-4.684 3.044-7.455 3.009c-2.778 0.046-5.463-1.029-7.481-2.994s-3.207-4.665-3.313-7.52l-5.643-214.62 5.684-100.096c0.122-5.888 4.866-10.513 10.754-10.513v-0.043zM444.506 352.047l-5.807 206.794c-0.107 3.079-1.382 5.992-3.554 8.115s-5.065 3.286-8.060 3.24c-3.009 0.057-5.919-1.107-8.099-3.24s-3.458-5.064-3.554-8.157l-5.193-206.752 5.193-99.507c0.107-3.089 1.388-6.007 3.568-8.132s5.083-3.281 8.085-3.226c3.017-0.043 5.926 1.135 8.102 3.285 2.172 2.15 3.435 5.099 3.511 8.196v-0.124l5.807 99.507zM468.463 241.015c6.746 0 12.305 5.466 12.429 12.194l5.274 98.795-5.274 246.033c-0.107 3.306-1.468 6.438-3.789 8.725-2.325 2.287-5.427 3.549-8.64 3.514-3.217 0.024-6.319-1.239-8.644-3.523-2.33-2.284-3.703-5.41-3.827-8.716l-4.706-245.952 4.706-98.918c0.119-6.643 5.722-12.151 12.471-12.151zM509.709 633.408c-3.443 0.058-6.775-1.275-9.271-3.712-2.5-2.438-3.972-5.785-4.1-9.325l-5.44-268.409 5.483-97.361c0.128-3.52 1.587-6.844 4.075-9.267 2.483-2.419 5.79-3.746 9.212-3.686 3.435-0.047 6.75 1.301 9.229 3.746 2.479 2.449 3.925 5.798 4.019 9.331v-0.124l5.969 97.361-5.969 268.367c-0.094 3.525-1.532 6.871-4.002 9.317s-5.777 3.797-9.203 3.763zM547.409 240.93l334.511-0.166c66.692 0 120.747 53.325 120.747 119.147 0 65.775-54.054 119.104-120.747 119.104-16.516 0-32.303-3.319-46.694-9.25-9.527 107.328-100.791 191.569-212.092 191.569-27.191 0-53.726-5.299-77.158-14.257-9.118-3.491-11.571-7.066-11.652-14.005v-378.052c0.128-3.588 1.532-7.002 3.942-9.6 2.411-2.594 5.662-4.194 9.143-4.489z" />
<glyph unicode="&#xe95d;" glyph-name="spinner" d="M981.333 448c0-92.826-27.524-183.569-79.095-260.745-51.571-77.184-124.873-137.34-210.633-172.864-85.756-35.524-180.126-44.817-271.167-26.705-91.042 18.108-174.669 62.805-240.307 128.444-65.637 65.634-110.337 149.265-128.446 240.307s-8.815 185.409 26.708 271.168c35.523 85.76 95.679 159.060 172.86 210.631s167.922 79.097 260.747 79.097v-117.333c-69.619 0-137.674-20.645-195.56-59.323s-103.003-93.653-129.645-157.973c-26.642-64.321-33.613-135.097-20.031-203.376s47.107-131.004 96.335-180.233c49.228-49.225 111.949-82.752 180.229-96.333s139.055-6.609 203.379 20.032c64.32 26.641 119.292 71.757 157.969 129.647 38.682 57.882 59.324 125.939 59.324 195.558h117.333z" />
<glyph unicode="&#xe95e;" glyph-name="spotify" d="M511.996 832c-212.070 0-383.996-171.922-383.996-383.996 0-212.079 171.926-383.987 383.996-383.987 212.096 0 384.004 171.908 384.004 383.987 0 212.060-171.904 383.996-384.004 383.996zM688.098 278.17c-6.878-11.281-21.645-14.857-32.926-7.932-90.159 55.070-203.657 67.541-337.322 37.005-12.88-2.935-25.719 5.133-28.654 18.018-2.949 12.885 5.090 25.724 18.002 28.659 146.275 33.421 271.745 19.029 372.963-42.829 11.281-6.921 14.857-21.641 7.936-32.922zM735.095 382.729c-8.666-14.089-27.098-18.534-41.173-9.869-103.219 63.445-260.561 81.818-382.647 44.757-15.834-4.783-32.556 4.143-37.362 19.947-4.769 15.834 4.159 32.525 19.965 37.342 139.458 42.313 312.829 21.815 431.362-51.025 14.076-8.666 18.526-27.093 9.856-41.152zM739.132 491.605c-123.759 73.508-327.949 80.267-446.111 44.404-18.975-5.757-39.040 4.957-44.791 23.931-5.75 18.984 4.952 39.036 23.941 44.804 135.642 41.178 361.131 33.222 503.616-51.366 17.105-10.129 22.699-32.172 12.565-49.217-10.086-17.067-32.209-22.69-49.22-12.557z" />
<glyph unicode="&#xe95f;" glyph-name="star-checked" d="M449.5 849.022c38.32-28.805 91.047-29.121 129.812-0.775 66.244 48.601 160.559 8.916 171.992-72.513 6.834-47.487 43.818-84.962 91.198-92.282 81.395-12.546 119.861-107.227 70.549-172.987-28.814-38.347-29.108-91.034-0.89-129.727 48.716-66.346 8.913-160.559-72.481-172.134-47.38-6.749-84.956-43.778-92.231-91.181-12.631-81.283-107.24-119.839-173.038-70.442-38.315 28.806-91.047 29.122-129.663 0.779-66.391-48.609-160.557-8.922-172.142 72.504-6.832 47.487-43.816 84.97-91.196 92.285-81.244 12.546-119.861 107.226-70.402 172.989 28.814 38.351 29.111 91.038 0.743 129.727-48.568 66.349-8.911 160.562 72.481 172.133 47.528 6.749 84.957 43.778 92.235 91.181 12.625 81.286 107.236 119.838 173.033 70.444zM351.622 766.979c-12.328-80.515-76.046-143.412-156.696-154.872-24.507-3.49-36.538-31.896-21.833-51.905 48.123-65.717 47.529-155.201-1.337-220.341-14.852-19.826-3.267-48.377 21.24-52.162 80.502-12.426 143.477-76.074 154.913-156.734 3.416-24.554 31.933-36.517 51.836-21.86 65.797 48.141 155.21 47.603 220.412-1.322 19.754-14.897 48.27-3.272 52.135 21.237 12.475 80.513 76.043 143.413 156.694 154.873 24.656 3.491 36.539 31.9 21.833 51.903-48.119 65.719-47.527 155.203 1.34 220.34 14.999 19.828 3.263 48.378-21.241 52.16-80.5 12.43-143.329 76.083-154.762 156.738-1.34 8.939-5.944 16.213-12.186 21.137-10.988 8.601-27.029 10.049-39.802 0.729-65.647-48.146-155.212-47.608-220.265 1.318-19.902 14.894-48.42 3.267-52.281-21.24zM680.012 527.38c0.298 10.183-3.415 20.488-11.135 28.262-14.857 14.848-38.916 14.848-53.769 0l-147.932-147.97-47.083 47.055c-14.853 14.852-38.914 14.852-53.767 0-14.852-14.848-14.852-38.925 0-53.773l71.887-71.943c7.873-7.885 18.714-11.58 29.11-11.090 10.396-0.49 20.792 3.206 28.668 11.099l172.887 172.847c7.128 7.079 10.841 16.245 11.135 25.513z" />
<glyph unicode="&#xe960;" glyph-name="star-filled" d="M542.285 776.72c-4.425 12.951-16.597 21.655-30.281 21.655-13.687 0-25.86-8.704-30.285-21.655l-75.697-221.571h-246.020c-14.003 0-26.38-9.105-30.549-22.473s0.837-27.895 12.358-35.853l197.631-136.559-75.269-220.318c-4.465-13.069-0.041-27.533 10.975-35.866s26.135-8.657 37.498-0.806l199.359 137.754 199.356-137.754c11.362-7.851 26.483-7.526 37.495 0.806 11.017 8.333 15.441 22.797 10.978 35.866l-75.273 220.318 197.632 136.559c11.52 7.957 16.529 22.485 12.356 35.853-4.169 13.368-16.546 22.473-30.545 22.473h-246.025l-75.695 221.571z" />
<glyph unicode="&#xe961;" glyph-name="star" d="M512.004 798.375c13.683 0 25.856-8.704 30.281-21.655l75.695-221.571h246.025c13.999 0 26.377-9.104 30.545-22.473 4.173-13.367-0.836-27.895-12.356-35.853l-197.632-136.559 75.273-220.318c4.463-13.069 0.038-27.533-10.978-35.866-11.012-8.333-26.133-8.657-37.495-0.806l-199.356 137.754-199.359-137.754c-11.363-7.851-26.483-7.526-37.498 0.806s-15.44 22.797-10.975 35.866l75.269 220.318-197.631 136.559c-11.52 7.957-16.527 22.485-12.358 35.853s16.546 22.473 30.549 22.473h246.020l75.697 221.571c4.425 12.951 16.597 21.655 30.285 21.655zM512.004 667.394l-52.817-154.592c-4.425-12.949-16.593-21.653-30.281-21.653h-166.302l133.137-91.994c11.782-8.145 16.72-23.121 12.090-36.672l-51.717-151.381 137.696 95.147c10.948 7.565 25.434 7.565 36.382 0l137.698-95.147-51.716 151.381c-4.634 13.551 0.307 28.527 12.087 36.672l133.137 91.994h-166.302c-13.683 0-25.856 8.704-30.281 21.653l-52.813 154.592z" />
<glyph unicode="&#xe962;" glyph-name="subtract" d="M512 810.667c-200.295 0-362.667-162.371-362.667-362.667s162.371-362.667 362.667-362.667c200.294 0 362.667 162.372 362.667 362.667s-162.372 362.667-362.667 362.667zM85.333 448c0 235.642 191.025 426.667 426.667 426.667 235.639 0 426.667-191.025 426.667-426.667 0-235.639-191.027-426.667-426.667-426.667-235.642 0-426.667 191.027-426.667 426.667zM298.667 448c0 17.673 14.327 32 32 32h362.667c17.673 0 32-14.327 32-32s-14.327-32-32-32h-362.667c-17.673 0-32 14.327-32 32z" />
<glyph unicode="&#xe963;" glyph-name="thumbsdown" d="M950.562 315.959l-48 384.041c-6.003 47.68-46.763 83.76-94.963 84h-679.599c-35.28 0-64-28.72-64-64v-352c0-35.281 28.72-64 64-64h172.24l151.16-302.319c5.402-10.842 16.478-17.681 28.638-17.681 88.243 0 160 71.761 160 160v64h215.761c25.442 0 49.399 9.882 67.439 27.84 18.082 18.001 28.122 42.001 28.16 67.52 0 4.318-0.277 8.64-0.798 12.599h-0.038zM288 368h-160v352h160v-352zM878.042 281.199c-6.003-5.961-14.003-9.041-22.443-9.199h-247.599c-17.681 0-32-14.319-32-32v-96c0-46.481-33.199-85.359-77.158-94.161l-146.842 293.679v376.482h455.441c16-0.080 29.598-12.12 31.599-27.96l48.038-384.281c0.201-1.399 0.282-2.799 0.282-4.241 0-8.439-3.319-16.358-9.318-22.319z" />
<glyph unicode="&#xe964;" glyph-name="thumbsup" d="M855.842 656h-215.842v64c0 88.24-71.761 160-160 160-12.122 0-23.198-6.84-28.638-17.68l-151.122-302.32h-172.24c-35.28 0-64-28.719-64-64v-352c0-35.281 28.72-64 64-64h679.761c48.038 0.239 88.798 36.318 94.801 84.041l47.957 383.72c0.559 4.24 0.841 8.56 0.841 12.88-0.119 52.64-42.999 95.36-95.518 95.36zM127.96 496h160.040v-352h-160v352h-0.040zM887.002 555.96l-48-383.962c-2.001-15.876-15.603-27.917-31.441-27.998h-455.561v376.439l146.842 293.721c43.959-8.8 77.158-47.64 77.158-94.16v-96c0-17.68 14.319-32 32-32h247.761c8.401 0 16.32-3.28 22.281-9.2 5.999-5.96 9.28-13.88 9.318-22.32 0-1.44-0.081-2.84-0.32-4.48l-0.038-0.040z" />
<glyph unicode="&#xe965;" glyph-name="tiktok" d="M679.782 874.667h-136.619v-552.192c0-65.796-52.548-119.838-117.939-119.838s-117.937 54.042-117.937 119.838c0 64.614 51.379 117.487 114.435 119.838v138.634c-138.957-2.349-251.056-116.311-251.056-258.472 0-143.339 114.434-258.475 255.727-258.475 141.291 0 255.723 116.314 255.723 258.475v283.145c51.379-37.597 114.436-59.92 180.996-61.095v138.636c-102.758 3.525-183.33 88.116-183.33 191.505z" />
<glyph unicode="&#xe966;" glyph-name="time" d="M512 768c-176.762 0-320-143.251-320-320 0-176.751 143.238-320 320-320 176.721 0 320 143.253 320 320s-143.279 320-320 320zM128 448c0 212.093 171.89 384 384 384 212.062 0 384-171.904 384-384s-171.938-384-384-384c-212.11 0-384 171.908-384 384zM522.483 672c17.673 0 32-14.327 32-32v-192c0-17.673-14.327-32-32-32h-149.332c-17.673 0-32 14.327-32 32s14.327 32 32 32h117.332v160c0 17.673 14.327 32 32 32z" />
</font>
</defs>
</svg>
